2 сезон

iTunes

MVO

1

2 сезон

iTunes

iTunes

1 сезон

RePack

30

Ultimate

ВАЖНО

ИГРА 18+

pack

RePack

MK11
pack

Легкие деньги

RePack

jed

RePack

fifa19

RePack

RDR2

RePack

NEED FOR SPEED™ PAYBACK

4 сезон

9 сезон

Бесстыжие 9 сезон

Все сериалы

все сериалы на PB.wtf

RePack

FAR CRY 5

Anonymous, добрый вечер, мы не успеваем собрать деньги на оплату серверов за декабрь и январь, помогите нам пожалуйста в это трудное время. В качестве благодарности мы отключим Вам всю рекламу на сайте (укажите свой ник в строку Ваше имя)!

×
  
Magnet ссылка

Выстрел в пустоту / Shot Caller (Рик Роман Во) [2017, триллер, драма, криминал, BDRip-AVC] DUB [iTunes] pb.wtf

Выстрел в пустоту через торрент pb.wtf

Раздают: 2 [ 0 KB/s ]
Размер: 2.44 GB | Добавлен: 3 года 5 мес. назад | Торрент скачан:4443 раза
Скачать  

11-08-2017 03:17 Выстрел в пустоту Скачать торрент  

Выстрел в пустоту / Shot Caller
Год выпуска: 2017
Страна: США
Жанр: триллер, драма, криминал
Продолжительность: 02:00:41
Перевод: Дубляж iTunes
Субтитры: английские

Режиссер: Рик Роман Во

rating

В ролях:

Николай Костер-Валдау, Джон Бернтал, Лэйк Белл, Омари Хардвик, Джеффри Донован, Эмори Коэн, Бенджамин Брэтт, Джесси Шрэм, Майкл Лэндис, Холт МакКэллани

Описание:

Роковая случайность, смертельная трагедия, и вся его жизнь летит под откос... Оказавшись за решеткой, он должен научиться жить по новым законам. Ты должен стать борцом, авторитетом или окажешься жертвой. Какую цену придется заплатить, чтобы выжить в этом аду, из которого нет дороги назад?..

Качество: BDRip-AVC
Формат: MKV
Видео кодек: H.264
Аудио кодек: AC3

Видео: 1024x426 (16:9), 23,976 fps, x264 ~2057 kbps avg, 0.197 bit/pixel
Аудио#1: 48 kHz, AC3 Dolby Digital, 3/2 (L,C,R,l,r) + LFE ch, ~384.00 kbps avg | RUS (iTunes)
Аудио#2: 48 kHz, AC3 Dolby Digital, 3/2 (L,C,R,l,r) + LFE ch, ~448.00 kbps avg | ENG
скриншот   скриншот   скриншот   скриншот   скриншот  

Общее
Уникальный идентификатор : 192814711218821091507887129098230648444 (0x910EC33A1CB3915C8B1647B03CDF4E7C)
Полное имя : D:Shot.Caller.2017.BDRip(AVC).OlLanDGroup.mkv
Формат : Matroska
Версия формата : Version 2
Размер файла : 2,44 Гбайт
Продолжительность : 2 ч. 0 м.
Общий поток : 2888 Кбит/сек
Название фильма : Shot.Caller.2017 - TorpedoUK
Дата кодирования : UTC 2017-08-11 00:59:24
Программа кодирования : mkvmerge v7.8.0 ('River Man') 32bit built on Apr 3 2015 12:11:22
Библиотека кодирования : libebml v1.3.1 + libmatroska v1.4.2
Обложка : Yes
Attachments : small_cover.jpg / small_cover_land.jpg / cover.jpg / cover_land.jpg

Видео
Идентификатор : 1
Формат : AVC
Формат/Информация : Advanced Video Codec
Профиль формата : High@L4.1
Параметр CABAC формата : Да
Параметр ReFrames формата : 10 кадров
Идентификатор кодека : V_MPEG4/ISO/AVC
Продолжительность : 2 ч. 0 м.
Битрейт : 2057 Кбит/сек
Ширина : 1024 пикселя
Высота : 426 пикселей
Соотношение сторон : 2,40:1
Режим частоты кадров : Постоянный
Частота кадров : 23,976 (24000/1001) кадра/сек
Цветовое пространство : YUV
Субдискретизация насыщенности : 4:2:0
Битовая глубина : 8 бит
Тип развёртки : Прогрессивная
Бит/(Пиксели*Кадры) : 0.197
Размер потока : 1,69 Гбайт (69%)
Библиотека кодирования : x264 core 146 r2538 121396c
Настройки программы : cabac=1 / ref=10 / deblock=1:-3:-3 / analyse=0x3:0x133 / me=umh / subme=11 / psy=1 / psy_rd=1.00:0.07 / mixed_ref=1 / me_range=48 / chroma_me=1 / trellis=2 / 8x8dct=1 / cqm=0 / deadzone=21,11 / fast_pskip=0 / chroma_qp_offset=-3 / threads=6 / lookahead_threads=1 / sliced_threads=0 / nr=0 / decimate=0 / interlaced=0 / bluray_compat=0 / constrained_intra=0 / bframes=10 / b_pyramid=2 / b_adapt=2 / b_bias=0 / direct=3 / weightb=1 / open_gop=0 / weightp=2 / keyint=240 / keyint_min=23 / scenecut=40 / intra_refresh=0 / rc_lookahead=40 / rc=2pass / mbtree=0 / bitrate=2057 / ratetol=1.0 / qcomp=0.60 / qpmin=0 / qpmax=69 / qpstep=4 / cplxblur=20.0 / qblur=0.5 / vbv_maxrate=50000 / vbv_bufsize=62500 / nal_hrd=none / filler=0 / ip_ratio=1.40 / pb_ratio=1.30 / aq=1:1.00
Язык : English
Default : Да
Forced : Нет

Аудио #1
Идентификатор : 2
Формат : AC-3
Формат/Информация : Audio Coding 3
Расширение режима : CM (complete main)
Параметр Endianness формата : Big
Идентификатор кодека : A_AC3
Продолжительность : 2 ч. 0 м.
Вид битрейта : Постоянный
Битрейт : 384 Кбит/сек
Каналы : 6 каналов
Расположение каналов : Front: L C R, Side: L R, LFE
Частота : 48,0 КГц
Частота кадров : 31,250 кадров/сек (1536 spf)
Битовая глубина : 16 бит
Метод сжатия : С потерями
Размер потока : 331 Мбайт (13%)
Заголовок : iTunes
Язык : Russian
Default : Да
Forced : Нет

Аудио #2
Идентификатор : 3
Формат : AC-3
Формат/Информация : Audio Coding 3
Расширение режима : CM (complete main)
Параметр Endianness формата : Big
Идентификатор кодека : A_AC3
Продолжительность : 2 ч. 0 м.
Вид битрейта : Постоянный
Битрейт : 448 Кбит/сек
Каналы : 6 каналов
Расположение каналов : Front: L C R, Side: L R, LFE
Частота : 48,0 КГц
Частота кадров : 31,250 кадров/сек (1536 spf)
Битовая глубина : 16 бит
Метод сжатия : С потерями
Размер потока : 387 Мбайт (16%)
Заголовок : Original
Язык : English
Default : Нет
Forced : Нет

Текст
Идентификатор : 4
Формат : UTF-8
Идентификатор кодека : S_TEXT/UTF8
Идентификатор кодека/Информация : UTF-8 Plain Text
Заголовок : SDH
Язык : English
Default : Нет
Forced : Нет

Меню
00:00:00.000 : en:Chapter 01
00:22:10.620 : en:Chapter 02
00:35:14.570 : en:Chapter 03
00:53:04.848 : en:Chapter 04
01:06:42.039 : en:Chapter 05
01:22:27.359 : en:Chapter 06
01:40:29.481 : en:Chapter 07
01:54:38.454 : en:Chapter 08

pb.wtf



Скачать Выстрел в пустоту через торрент http://lostpix.com/img/2017-08/11/a8baw4kzrx1b86rw1p9jo7tqm.jpg Скачать фильм Выстрел в пустоту через торрент бесплантно в хорошем качестве Описание: Роковая случайность, смертельная трагедия, и вся его жизнь летит под откос... Оказавшись за решеткой, он должен научиться жить по ... 9.2 10 55
Info! Золотая раздача, скачанное не засчитывается.
Торрент: Зарегистрирован [2017-08-11 03:17] · скачан: 4 443 раз
Статус: √ проверено
Размер: 2.44 GB
Как cкачать? Как скачать Выстрел в пустоту через торрент | UTorrent

% Раздел Тема Автор DL S | L
Фильмы с авторской озвучкой [ 2.05 GB ] Выстрел в пустоту / Главарь / Shot Caller [2017 HDRip] [AVO] killermax2013 Скачать
2 | 0
Фильмы [HD 720p, 1080p] (Хороший звук DUB, MVO) [ 11.45 GB ] Выстрел в пустоту / Shot Caller [2017 BDRip 1080p] DUB [] bober100 Скачать
2 | 0
Фильмы 2017 [DVDrip, WEB-DLRip, HDrip] (DUB, MVO) [ 2.37 GB ] Выстрел в пустоту / Shot Caller [2017 BDRip-AVC ] от ExKinoRay morfyi Скачать
2 | 0
Фильмы 2017 [DVDrip, WEB-DLRip, HDrip] (DUB, MVO) [ 2.18 GB ] Выстрел в пустоту / Shot Caller [2017 BDRip] - [] Twi7ter Скачать
1 | 0
Фильмы [HD 720p, 1080p] (Хороший звук DUB, MVO) [ 5.54 GB ] Выстрел в пустоту / Shot Caller [2017 BDRip 720p ] от ExKinoRay morfyi Скачать
3 | 0
Фильмы (Blu-ray, BD-Remux, HDDVD) [ 31.95 GB ] Выстрел в пустоту / Shot Caller [2017 BD Remux 1080p] DUB [RUS Transfer] [] bober100 Скачать
1 | 0
Фильмы [HD 720p, 1080p] (Хороший звук DUB, MVO) [ 6.55 GB ] Выстрел в пустоту / Shot Caller [2017 BDRip 720p] DUB [] bober100 Скачать
1 | 0

28-11-2019 20:33  

Отключить всю рекламу на сайте

12-08-2017 16:49 Выстрел в пустоту Скачать торрент  

Хороший фильмpb.wtf



13-08-2017 09:56 Выстрел в пустоту Скачать торрент  

ваще нормуль кено pb.wtf



13-08-2017 12:23 Выстрел в пустоту Скачать торрент  

довно токого не видел побольше таких фильмовpb.wtf



14-08-2017 09:36 Выстрел в пустоту Скачать торрент  

посмотрел,очень крутой фильм!pb.wtf



15-08-2017 18:47 Выстрел в пустоту Скачать торрент  

Фильм просто огонь!!! Обязательно к просмотру!pb.wtf



16-08-2017 16:33 Выстрел в пустоту Скачать торрент  

фильм реальный pb.wtf



18-08-2017 09:56 Выстрел в пустоту Скачать торрент  

Зацепил фильм! Давно таких ощущений после просмотра не было)pb.wtf



21-08-2017 15:01 Выстрел в пустоту Скачать торрент  

Отличный фильм!pb.wtf



21-08-2017 15:54 Выстрел в пустоту Скачать торрент  

однозначно всем смотреть.pb.wtf



21-08-2017 17:37 Выстрел в пустоту Скачать торрент  

Хороший кинчик, не зря потрачено время.pb.wtf



22-08-2017 09:24 Выстрел в пустоту Скачать торрент  

филмец зачетный раздающему респектpb.wtf



30-08-2017 18:11 Выстрел в пустоту Скачать торрент  

согласен со всеми! хорошийpb.wtf



02-10-2017 18:05 Выстрел в пустоту Скачать торрент  

Класс фильмpb.wtf



23-10-2017 11:46 Выстрел в пустоту Скачать торрент  

хороший фильм, стоит посмотретьpb.wtf



13-11-2017 10:31 Выстрел в пустоту Скачать торрент  

Фильм понравился,некоторые моменты не понятны. Однозначно смотреть.pb.wtf



Друзья, наш проект PiratBit построен на чистом энтузиазме. Денег от рекламы он приносит мало, потому как нет хороших, богатых рекламодателей, которые бы хотели работать с сайтами, которые нарушают законодательство той или иной страны, да и вешать какую-то шлако-рекламу с вирусами тоже мы не хотим, поскольку мы уважаем своих пользователей и Ваша безопасность на нашем сайте для нас превыше всего. В связи с этим, мы вынуждены просить помощи у каждого из Вас. Каких-то 3, 5, 10 рублей для каждого из Вас по большому счету копейки, а для нас это будет хорошая поддержка.
Нашими приоритетами всегда были качество и быстрота везде и во всем!!!
Технически так сложилось, чтобы все "летало" мы используем 4 мощных абузоустойчивых сервера, каждый из которых стоит 100$ в месяц.
Ребята, мы будем рады любой помощи, надеюсь на понимание Devi...

Важно, если ваш платеж составляет больше 100 руб.(единоразово) то мы для вас отключим рекламу на месяц, 200=2мес., 300=3мес., 400=4мес., если больше чем 499 руб.(единоразово) то на 6 месяцев, УКАЗЫВАЙТЕ СВОЙ НИК В ПРИМЕЧАНИИ К ПЛАТЕЖУ!


Яндекс Деньги,QIWI,WebMoney,Steam,Payeer,СберБанк,Мобильный,BitCoin,PayPal
    Дорогой пользователь! Огромная просьба, поблагодарите релизера, оцените раздачу и оставьте свои комментарий, если Вы скачали Выстрел в пустоту через торрент бесплатно! Внесите свою лепту в развитие PiratBit!
    Комментировать посты могут только пользователи прошедшие не сложную регистрацию
    Показать сообщения:    

    Выстрел в пустоту через торрент
    Скачать бесплатно Выстрел в пустоту
    Выстрел в пустоту скачать торрент
    Выстрел в пустоту смотреть онлайн
    Cкачать фильм Выстрел в пустоту бесплатно
    Выстрел в пустоту скачать торрент в хорошем качестве
    Выстрел в пустоту смотреть онлайн бесплатно в хорошем качестве


    Вы не можете начинать темы
    Вы не можете отвечать на сообщения
    Вы не можете редактировать свои сообщения
    Вы не можете удалять свои сообщения
    Вы не можете голосовать в опросах
    Вы не можете прикреплять файлы к сообщениям
    Вы можете скачивать файлы