Ссылка на приватное зеркало нашего сайта всего за 1$. Внимание количество ограничено!!!

2 сезон

iTunes

1 сезон

1

2 сезон

2 сезон

iTunes

1 сезон

RePack

30

Новинка

ВАЖНО

ИГРА 18+

pack

RePack

MK11
pack

Забери бонус

RePack

jed

!!Акция!!

Alien_Rage

RePack

fifa19

RePack

Assassins Creed: Odyssey

RePack

NEED FOR SPEED™ PAYBACK

4 сезон

9 сезон

Бесстыжие 9 сезон

Все сериалы

все сериалы на PB.wtf

RePack

FAR CRY 5
  

Superнянь 2 / Babysitting 2 (Николас Бенаму, Филипп Лашо) [2015, комедия, BD Remux 1080p] 2xDUB (rus, ukr) [iTunes] pb.wtf

Superнянь 2 через торрент pb.wtf

Размер: 15.34 GB | Добавлен: 3 года 3 мес. назад | Торрент скачан:80 раз
Скачать  

11-08-2017 15:20 Superнянь 2 Скачать торрент  

Superнянь 2 / Babysitting 2Год выпуска: 2015
Страна: Франция
Жанр: комедия
Продолжительность: 01:33:19
Перевод: Дубляж iTunes
Субтитры: Русские, украинские

Режиссер: Николас Бенаму, Филипп Лашо

rating

В ролях:

Филипп Лашо, Алис Давид, Венсан Дезанья, Тарек Будали, Кристиан Клавье, Жюльен Аррути, Грегуар Людиг, Давид Марсе, Шарлотта Габрис, Бето Бенитес

Описание:

Влюбленная парочка Фрэнк и Соня приглашают своих друзей на отдых в Бразилию, в роскошный отель богатенького папы Сони. Планировалось, что это будет отдых мечты, а Фрэнк сделает Соне предложение посреди всей этой экзотики. Но его попытки получить одобрение отца оборачиваются полным провалом. Ведь с такими друзьями, как у него, и враги не нужны! Но настоящая катастрофа — впереди. Когда друзья — сексуально озабоченный Сэм, наивный чудак Эрнест и умственно отсталый Алекс — вместе с беднягой Фрэнком собрались на экскурсию, ушлый папаша пользуется возможностью и засылает в джунгли с этой бандой свою крикливую и надоедливую старушку. В общем, Амазонка и ее девственные леса еще никогда не были в такой опасности!

Качество: BD Remux 1080p
Формат: MKV
Видео кодек: H.264
Аудио кодек: AC3/DTS

Видео: MPEG-4 AVC / 18999 kbps / 1920x1080 / 24 fps / 16:9 / High Profile 4.1
Аудио#1: Russian AC3 / 5.1 / 48 kHz / 384 kbps / 16 bits |Dub, iTunes|
Аудио#2: Ukrainian AC3 / 2.0 / 48 kHz / 192 kbps / 16 bits |Dub|
Аудио#3: French DTS-HD Master Audio / 5.1 / 48 kHz / 4033 kbps / 24 bits (DTS Core: 5.1 / 48 kHz / 1509 kbps / 24 bits) |original|
скриншот  скриншот  скриншот  скриншот  

Общее
Уникальный идентификатор : 180752733162188961307205553076077006442 (0x87FBB5CB41856C8CA52ED40FC19B0E6A)
Полное имя : G:HDSuperнянь 2.2015.Blu-Ray.Remux.(1080p).mkv
Формат : Matroska
Версия формата : Version 4 / Version 2
Размер файла : 15,3 Гбайт
Продолжительность : 1 ч. 33 м.
Режим общего битрейта : Переменный
Общий поток : 23,5 Мбит/сек
Дата кодирования : UTC 2017-03-03 17:04:39
Программа кодирования : mkvmerge v9.9.0 ('Pick Up') 64bit
Библиотека кодирования : libebml v1.3.4 + libmatroska v1.4.5
Attachments : poster.jpg

Видео
Идентификатор : 1
Формат : AVC
Формат/Информация : Advanced Video Codec
Профиль формата : High@L4.1
Параметр CABAC формата : Да
Параметр ReFrames формата : 4 кадра
Идентификатор кодека : V_MPEG4/ISO/AVC
Продолжительность : 1 ч. 33 м.
Вид битрейта : Переменный
Битрейт : 18,9 Мбит/сек
Максимальный битрейт : 35,0 Мбит/сек
Ширина : 1920 пикселей
Высота : 1080 пикселей
Соотношение сторон : 16:9
Режим частоты кадров : Постоянный
Частота кадров : 24,000 кадра/сек
Цветовое пространство : YUV
Субдискретизация насыщенности : 4:2:0
Битовая глубина : 8 бит
Тип развёртки : Прогрессивная
Бит/(Пиксели*Кадры) : 0.380
Размер потока : 12,3 Гбайт (80%)
Default : Да
Forced : Нет

Аудио #1
Идентификатор : 2
Формат : AC-3
Формат/Информация : Audio Coding 3
Параметр Endianness формата : Big
Идентификатор кодека : A_AC3
Продолжительность : 1 ч. 33 м.
Вид битрейта : Постоянный
Битрейт : 384 Кбит/сек
Каналы : 6 каналов
Расположение каналов : Front: L C R, Side: L R, LFE
Частота : 48,0 КГц
Частота кадров : 31,250 кадров/сек (1536 spf)
Битовая глубина : 16 бит
Метод сжатия : С потерями
Размер потока : 256 Мбайт (2%)
Заголовок : Dub, iTunes
Язык : Russian
ServiceKind/St.ring : Complete Main
Default : Да
Forced : Нет

Аудио #2
Идентификатор : 3
Формат : AC-3
Формат/Информация : Audio Coding 3
Параметр Endianness формата : Big
Идентификатор кодека : A_AC3
Продолжительность : 1 ч. 33 м.
Вид битрейта : Постоянный
Битрейт : 192 Кбит/сек
Каналы : 2 канала
Расположение каналов : Front: L R
Частота : 48,0 КГц
Частота кадров : 31,250 кадров/сек (1536 spf)
Битовая глубина : 16 бит
Метод сжатия : С потерями
Размер потока : 128 Мбайт (1%)
Заголовок : Dub
Язык : Ukrainian
ServiceKind/St.ring : Complete Main
Default : Нет
Forced : Нет

Аудио #3
Идентификатор : 4
Формат : DTS
Формат/Информация : Digital Theater Systems
Профиль формата : MA / Core
Режим : 16
Параметр Endianness формата : Big
Идентификатор кодека : A_DTS
Продолжительность : 1 ч. 33 м.
Вид битрейта : Переменный / Постоянный
Битрейт : 4033 Кбит/сек / 1509 Кбит/сек
Каналы : 6 каналов
Расположение каналов : Front: L C R, Side: L R, LFE
Частота : 48,0 КГц
Частота кадров : 93,750 кадра/сек (512 spf)
Битовая глубина : 24 бит
Метод сжатия : Без потерь / Lossy
Размер потока : 2,63 Гбайт (17%)
Язык : French
Default : Нет
Forced : Нет

Текст #1
Идентификатор : 5
Формат : UTF-8
Идентификатор кодека : S_TEXT/UTF8
Идентификатор кодека/Информация : UTF-8 Plain Text
Продолжительность : 1 ч. 25 м.
Битрейт : 123 бит/сек
ElementCount : 2213
Размер потока : 77,4 Кбайт (0%)
Язык : Russian
Default : Нет
Forced : Нет

Текст #2
Идентификатор : 6
Формат : UTF-8
Идентификатор кодека : S_TEXT/UTF8
Идентификатор кодека/Информация : UTF-8 Plain Text
Продолжительность : 1 ч. 25 м.
Битрейт : 124 бит/сек
ElementCount : 2213
Размер потока : 77,6 Кбайт (0%)
Язык : Ukrainian
Default : Нет
Forced : Нет

Меню
00:00:00.000 : :Chapter 01
00:10:38.791 : :Chapter 02
00:18:30.500 : :Chapter 03
00:28:19.041 : :Chapter 04
00:40:38.541 : :Chapter 05
00:49:41.125 : :Chapter 06
00:59:20.375 : :Chapter 07
01:12:05.500 : :Chapter 08
01:19:33.666 : :Chapter 09
01:28:21.916 : :Chapter 10

pb.wtf



Скачать Superнянь 2 через торрент http://s019.radikal.ru/i620/1708/c1/4c4bf9e267b9.jpg Скачать фильм Superнянь 2 через торрент бесплантно в хорошем качестве Описание: Влюбленная парочка Фрэнк и Соня приглашают своих друзей на отдых в Бразилию, в роскошный отель богатенького папы Сони. ... 10 10 4
Info! Серебряная раздача, засчитывается только 50% скачанного.
Торрент: Зарегистрирован [2017-08-11 15:20] · скачан: 80 раз
Статус: √ проверено
Размер: 15.34 GB
Как cкачать? Как скачать Superнянь 2 через торрент | qTorrent

% Раздел Тема Автор DL S | L
Фильмы 2015 [DVDrip, WEB-DLRip, HDrip] [ 1.54 GB ] Superнянь 2 / Babysitting 2 [2015 BDRip] - Twi7ter Скачать
1 | 0
Фильмы 2015 [DVDrip, WEB-DLRip, HDrip] [ 2.51 GB ] Superнянь 2 / Babysitting 2 [2015 BDRip-AVC] - - ExKinoRay Enigma2010 Скачать
1 | 0
Фильмы 2015 [DVDrip, WEB-DLRip, HDrip] [ 1.37 GB ] Superнянь 2 / Babysitting 2 [2015 WEB-DLRip] $-DRON-$ Скачать
1 | 0
R.G. Resident & PiratVoice - Фильмы, Видео [ 1.46 GB ] Superнянь 2 / Babysitting 2 [2015 WEB-DLRip-AVC ] От R.G.Resident White Smoke Скачать
1 | 0
Фильмы (WEB-DL 720p, 1080p) [ 3.59 GB ] Superнянь 2 / Babysitting 2 [2015 WEB-DL 1080p ] White Smoke Скачать
2 | 0
Фильмы (WEB-DL 720p, 1080p) [ 2.87 GB ] Superнянь 2 / Babysitting 2 [2015 WEB-DL 720p] $-DRON-$ Скачать
1 | 0
Фильмы 2015 [DVDrip, WEB-DLRip, HDrip] [ 703 MB ] Superнянь 2 / Babysitting 2 [2015 WEB-DLRip ""] coc900 Скачать
1 | 0

28-11-2019 20:33  

Отключить всю рекламу на сайте

12-08-2017 06:05 Superнянь 2 Скачать торрент  

фильм огоньpb.wtf



    Дорогой пользователь! Огромная просьба, поблагодарите релизера, оцените раздачу и оставьте свои комментарий, если Вы скачали Superнянь 2 через торрент бесплатно! Внесите свою лепту в развитие PiratBit!
    Комментировать посты могут только пользователи прошедшие не сложную регистрацию
    Показать сообщения:    

    Superнянь 2 через торрент
    Скачать бесплатно Superнянь 2
    Superнянь 2 скачать торрент
    Superнянь 2 смотреть онлайн
    Cкачать фильм Superнянь 2 бесплатно
    Superнянь 2 скачать торрент в хорошем качестве
    Superнянь 2 смотреть онлайн бесплатно в хорошем качестве


    Вы не можете начинать темы
    Вы не можете отвечать на сообщения
    Вы не можете редактировать свои сообщения
    Вы не можете удалять свои сообщения
    Вы не можете голосовать в опросах
    Вы не можете прикреплять файлы к сообщениям
    Вы можете скачивать файлы