2 сезон

iTunes

1 сезон

1

iTunes

iTunes

iTunes

1 сезон

RePack

30

ИГРА 18+

pack

ВАЖНО

!!Акция!!

Alien_RageХит недели

RePack

MK11
pack

Забери бонус

RePack

jed

!!Акция!!

Alien_Rage

RePack

fifa19

RePack

Assassins Creed: Odyssey

RePack

NEED FOR SPEED™ PAYBACK

4 сезон

9 сезон

Бесстыжие 9 сезон

Все сериалы

все сериалы на PB.wtf

RePack

FAR CRY 5
  

Спасти или уничтожить / 1-4 серии из 4 (Владимир Фатьянов) [2013, военный, приключения, WEB-DL 720p] pb.wtf

Спасти или уничтожить через торрент pb.wtf

Размер: 4.88 GB | Добавлен: 3 года 2 мес. назад | Торрент скачан:105 раз
Скачать  

12-08-2017 18:10 Спасти или уничтожить Скачать торрент  

Спасти или уничтожить (1-4 серии из 4)
Год выпуска: 2013
Страна: Россия
Жанр: военный, приключения
Продолжительность: 4 x ~ 00:52:00
Субтитры: отсутствуют

Режиссер: Владимир Фатьянов



В ролях:

Никита Зверев, Анна Снаткина, Анна Горшкова, Вадим Колганов, Антон Старовойтов, Матвей Шкуратов, Кирилл Захаров, Борис Полунин, Юрий Вутто, Максим Дубовский, Владимир Янковский, Игорь Волков, Владимир Грицевский, Ирина Нарбекова

Описание:

Дело начинается в 1941-м году. По поручению Сталина создается специальная группа разведчиков особой секретности. Участники группы - хорошо тренированные военнослужащие, которые не знают страха, преданные Родине и высшему руководству.
Их первое задание подготовил сам Сталин. По его приказу группа должна пробраться в тыл врага и разыскать Якова Джугашвили, который, вероятно, находился в плену. Как оказалось позже Яков - старший сын Сталина. Перед членами группы стоит нелегкая задача. Отказ или неповиновение карается смертью. Никто точно не знает, жив ли Яков, или нет. Возникает множество вопросов по ходу операции...

Качество: WEB-DL 720p
Формат: MKV
Видео кодек: H.264
Аудио кодек: AC3

Видео: 1280х720р (16:9), 50 fps, AVC MPEG-4 (x264), High@L3.2 ~ 3200 kbps avg, 0.068 bit/pixel
Аудио: Русский: 48 kHz, AC3, 2/0 (L,R) ch, ~192.00 kbps avg
скриншот   скриншот   скриншот   скриншот  

Общее
Формат : Matroska
Версия формата : Version 2
Размер файла : 1,24 Гбайт
Продолжительность : 51 м.
Общий поток : 3415 Кбит/сек
Дата кодирования : UTC 2015-09-13 11:47:17
Программа кодирования : mkvmerge v5.8.0 ('No Sleep / Pillow') built on Sep 2 2012 15:37:04
Библиотека кодирования : libebml v1.2.3 + libmatroska v1.3.0

Видео
Идентификатор : 1
Формат : AVC
Формат/Информация : Advanced Video Codec
Профиль формата : High@L3.2
Параметр CABAC формата : Да
Параметр ReFrames формата : 4 кадра
Идентификатор кодека : V_MPEG4/ISO/AVC
Продолжительность : 51 м.
Битрейт : 3200 Кбит/сек
Ширина : 1280 пикселей
Высота : 720 пикселей
Соотношение сторон : 16:9
Режим частоты кадров : Постоянный
Частота кадров : 50,000 кадров/сек
Цветовое пространство : YUV
Субдискретизация насыщенности : 4:2:0
Битовая глубина : 8 бит
Тип развёртки : Прогрессивная
Бит/(Пиксели*Кадры) : 0.068
Размер потока : 1,15 Гбайт (92%)
Язык : Russian
Default : Да
Forced : Да

Аудио
Идентификатор : 2
Формат : AC-3
Формат/Информация : Audio Coding 3
Расширение режима : CM (complete main)
Параметр Endianness формата : Big
Идентификатор кодека : A_AC3
Продолжительность : 51 м.
Вид битрейта : Постоянный
Битрейт : 192 Кбит/сек
Каналы : 2 канала
Расположение каналов : Front: L R
Частота : 48,0 КГц
Метод сжатия : С потерями
Размер потока : 71,4 Мбайт (6%)
Язык : Russian
Default :

pb.wtf



Скачать Спасти или уничтожить через торрент http://s017.radikal.ru/i400/1509/da/c306fc0690ab.jpg Скачать фильм Спасти или уничтожить через торрент бесплантно в хорошем качестве Описание: Дело начинается в 1941-м году. По поручению Сталина создается специальная группа разведчиков особой секретности. Участники группы ... 8.5 10 4
Торрент: Зарегистрирован [2017-08-12 18:10] · скачан: 105 раз
Статус: √ проверено
Размер: 4.88 GB
Как cкачать? Как скачать Спасти или уничтожить через торрент | qTorrent

% Раздел Тема Автор DL S | L
Наши сериалы [ 2.54 GB ] Спасти или уничтожить / 1-4 серии из 4 [2013 военный WEB-DLRip] bober100 Скачать
1 | 0

28-11-2019 20:33  

Отключить всю рекламу на сайте

    Дорогой пользователь! Огромная просьба, поблагодарите релизера, оцените раздачу и оставьте свои комментарий, если Вы скачали Спасти или уничтожить через торрент бесплатно! Внесите свою лепту в развитие PiratBit!
    Комментировать посты могут только пользователи прошедшие не сложную регистрацию
    Показать сообщения:    

    Спасти или уничтожить через торрент
    Скачать бесплатно Спасти или уничтожить
    Спасти или уничтожить скачать торрент
    Спасти или уничтожить смотреть онлайн
    Cкачать фильм Спасти или уничтожить бесплатно
    Спасти или уничтожить скачать торрент в хорошем качестве
    Спасти или уничтожить смотреть онлайн бесплатно в хорошем качестве


    Вы не можете начинать темы
    Вы не можете отвечать на сообщения
    Вы не можете редактировать свои сообщения
    Вы не можете удалять свои сообщения
    Вы не можете голосовать в опросах
    Вы не можете прикреплять файлы к сообщениям
    Вы можете скачивать файлы