Ссылка на приватное зеркало нашего сайта всего за 1$. Внимание количество ограничено!!!

2 сезон

iTunes

1 сезон

1

iTunes

iTunes

iTunes

1 сезон

RePack

30

ИГРА 18+

pack

ВАЖНО

!!Акция!!

Alien_RageХит недели

RePack

MK11
pack

Забери бонус

RePack

jed

!!Акция!!

Alien_Rage

RePack

fifa19

RePack

Assassins Creed: Odyssey

RePack

NEED FOR SPEED™ PAYBACK

4 сезон

9 сезон

Бесстыжие 9 сезон

Все сериалы

все сериалы на PB.wtf

RePack

FAR CRY 5
  

Девушка моего лучшего друга (Расширенная версия) / My Best Friend's Girl (Unrated) (Ховард Дойч) [2008, комедия, мелодрама, BDRip 720p by msltel] DUB, VO pb.wtf

Девушка моего лучшего друга через торрент pb.wtf

Размер: 5.86 GB | Добавлен: 3 года 2 мес. назад | Торрент скачан:142 раза
Скачать  

13-08-2017 05:50 Девушка моего лучшего друга Скачать торрент  

Название: Девушка моего лучшего друга
Оригинальное название: My Best Friend's Girl
Год выпуска: 2008
Страна: США
Жанр: комедия, мелодрама
Продолжительность: 01:52:29
Перевод: дублированный, любительский одноголосый

Режиссер: Ховард Дойч
В ролях: Кейт Хадсон, Алек Болдуин, Джейсон Биггс, Дэйн Кук, Лиззи Каплан, Диора Бэрд, Дженни Моллен, Аманда Брукс, Эндрю Колдуэлл, Таран Киллам, Рики Линдхоум, Нейт Торренс

О фильме: Тэнк зарабатывает себе на жизнь, изображая из себя полно идиота! Он приглашает девушек на свидание, ведёт себя как полный придурок, доводит их до истерик, после чего бедняжки, сломя голову, несутся в объятия своих бывших. А эти самые бывшие хорошо платят Тэнку за его услуги. Но всё меняется, когда он соглашается помочь своему лучшему другу вернуть его бывшую девушку... и сам влюбляется в неё...



Качество: BDRip 720p
Формат: MKV
Видео: MPEG-4 AVC, 6116 Кбит/с, 1280x690
Аудио 1: русский, AC3, 448 kbps, 6 ch, 48 kHz [дублированный, Пифагор, со вставками RussianGuy27]
Аудио 2: русский, AC3, 448 kbps, 6 ch, 48 kHz [любительский одноголосый, RussianGuy27]
Аудио 3: английский, AC3, 448 kbps, 6 ch, 48 kHz [оригинал]
Субтитры: английские
Имеются неименованные главы/чаптеры.
Общее
Уникальный идентификатор : 181848072099255184198767244194715713383 (0x88CEAA2C4D790B6485DFAB46435ABF67)
Полное имя : D:\Video\Девушка моего лучшего друга.2008.BDRip.720p by msltel.mkv
Формат : Matroska
Версия формата : Version 4 / Version 2
Размер файла : 5,86 Гбайт
Продолжительность : 1 ч. 52 м.
Общий поток : 7462 Кбит/сек
Название фильма : Rip by msltel
Дата кодирования : UTC 2017-08-12 12:29:47
Программа кодирования : mkvmerge v8.2.0 ('World of Adventure') 64bit
Библиотека кодирования : libebml v1.3.1 + libmatroska v1.4.2

Видео
Идентификатор : 1
Формат : AVC
Формат/Информация : Advanced Video Codec
Профиль формата : High@L4.1
Параметр CABAC формата : Да
Параметр RefFrames формата : 9 кадров
Идентификатор кодека : V_MPEG4/ISO/AVC
Продолжительность : 1 ч. 52 м.
Битрейт : 6116 Кбит/сек
Ширина : 1280 пикселей
Высота : 690 пикселей
Соотношение сторон : 1,85:1
Режим частоты кадров : Постоянный
Частота кадров : 23,976 (24000/1001) кадра/сек
Цветовое пространство : YUV
Субдискретизация насыщенности : 4:2:0
Битовая глубина : 8 бит
Тип развёртки : Прогрессивная
Бит/(Пиксели*Кадры) : 0.289
Размер потока : 4,80 Гбайт (82%)
Библиотека кодирования : x264 core 146 r2538 121396c
Настройки программы : cabac=1 / ref=9 / deblock=1:-3:-2 / analyse=0x3:0x113 / me=umh / subme=11 / psy=1 / psy_rd=1.00:0.15 / mixed_ref=1 / me_range=32 / chroma_me=1 / trellis=2 / 8x8dct=1 / cqm=0 / deadzone=21,11 / fast_pskip=0 / chroma_qp_offset=-3 / threads=6 / lookahead_threads=1 / sliced_threads=0 / nr=0 / decimate=1 / interlaced=0 / bluray_compat=0 / constrained_intra=0 / bframes=6 / b_pyramid=2 / b_adapt=2 / b_bias=0 / direct=1 / weightb=1 / open_gop=0 / weightp=2 / keyint=230 / keyint_min=23 / scenecut=40 / intra_refresh=0 / rc_lookahead=40 / rc=crf / mbtree=0 / crf=19.7 / qcomp=0.60 / qpmin=0 / qpmax=69 / qpstep=4 / vbv_maxrate=62500 / vbv_bufsize=78125 / crf_max=0.0 / nal_hrd=none / filler=0 / ip_ratio=1.40 / pb_ratio=1.30 / aq=1:1.00
Язык : English
Default : Да
Forced : Нет

Аудио #1
Идентификатор : 2
Формат : AC-3
Формат/Информация : Audio Coding 3
Параметр Endianness формата : Big
Идентификатор кодека : A_AC3
Продолжительность : 1 ч. 52 м.
Вид битрейта : Постоянный
Битрейт : 448 Кбит/сек
Каналы : 6 каналов
Расположение каналов : Front: L C R, Side: L R, LFE
Частота : 48,0 КГц
Частота кадров : 31,250 кадров/сек (1536 SPF)
Битовая глубина : 16 бит
Метод сжатия : С потерями
Размер потока : 360 Мбайт (6%)
Заголовок : DUB (Пифагор, со вставками RussianGuy27)
Язык : Russian
ServiceKind/String : Complete Main
Default : Да
Forced : Нет

Аудио #2
Идентификатор : 3
Формат : AC-3
Формат/Информация : Audio Coding 3
Параметр Endianness формата : Big
Идентификатор кодека : A_AC3
Продолжительность : 1 ч. 52 м.
Вид битрейта : Постоянный
Битрейт : 448 Кбит/сек
Каналы : 6 каналов
Расположение каналов : Front: L C R, Side: L R, LFE
Частота : 48,0 КГц
Частота кадров : 31,250 кадров/сек (1536 SPF)
Битовая глубина : 16 бит
Метод сжатия : С потерями
Размер потока : 360 Мбайт (6%)
Заголовок : RussianGuy27
Язык : Russian
ServiceKind/String : Complete Main
Default : Нет
Forced : Нет

Аудио #3
Идентификатор : 4
Формат : AC-3
Формат/Информация : Audio Coding 3
Параметр Endianness формата : Big
Идентификатор кодека : A_AC3
Продолжительность : 1 ч. 52 м.
Вид битрейта : Постоянный
Битрейт : 448 Кбит/сек
Каналы : 6 каналов
Расположение каналов : Front: L C R, Side: L R, LFE
Частота : 48,0 КГц
Частота кадров : 31,250 кадров/сек (1536 SPF)
Битовая глубина : 16 бит
Метод сжатия : С потерями
Размер потока : 360 Мбайт (6%)
Заголовок : original
Язык : English
ServiceKind/String : Complete Main
Default : Нет
Forced : Нет

Текст
Идентификатор : 5
Формат : UTF-8
Идентификатор кодека : S_TEXT/UTF8
Идентификатор кодека/Информация : UTF-8 Plain Text
Продолжительность : 1 ч. 45 м.
Битрейт : 81 бит/сек
ElementCount : 1602
Размер потока : 62,7 Кбайт (0%)
Заголовок : английские
Язык : English
Default : Нет
Forced : Нет

Меню
00:00:00.000 : :Chapter 01
00:08:15.786 : :Chapter 02
00:12:35.838 : :Chapter 03
00:18:52.172 : :Chapter 04
00:27:07.000 : :Chapter 05
00:34:41.078 : :Chapter 06
00:41:49.882 : :Chapter 07
00:49:09.363 : :Chapter 08
00:55:56.186 : :Chapter 09
01:02:01.509 : :Chapter 10
01:09:23.659 : :Chapter 11
01:17:28.560 : :Chapter 12
01:24:09.169 : :Chapter 13
01:31:42.955 : :Chapter 14
01:39:17.242 : :Chapter 15
01:46:29.383 : :Chapter 16
pb.wtf



Скачать Девушка моего лучшего друга через торрент http://s46.radikal.ru/i111/1708/b1/0db5b58d837e.jpg Скачать фильм Девушка моего лучшего друга через торрент бесплантно в хорошем качестве О фильме: Тэнк зарабатывает себе на жизнь, изображая из себя полно идиота! Он приглашает девушек на свидание, ведёт себя как полный ... 10 10 4
Info! Золотая раздача, скачанное не засчитывается.
Торрент: Зарегистрирован [2017-08-13 05:50] · скачан: 142 раз
Статус: √ проверено
Размер: 5.86 GB
Как cкачать? Как скачать Девушка моего лучшего друга через торрент | qTorrent

% Раздел Тема Автор DL S | L
Фильмы [HD 720p, 1080p] (Хороший звук DUB, MVO) [ 17.18 GB ] Девушка моего лучшего друга / My Best Friend's Girl [2008 BDRip 1080p by msltel] DUB VO msltel Скачать
1 | 0
Фильмы (Blu-ray, BD-Remux, HDDVD) [ 41.96 GB ] Девушка моего лучшего друга / My Best Friend's Girl [2008 Blu-ray 1080p] DUB+VO+MVO bober100 Скачать
1 | 1

28-11-2019 20:33  

Отключить всю рекламу на сайте

13-08-2017 11:36 Девушка моего лучшего друга Скачать торрент  

pb.wtf



    Дорогой пользователь! Огромная просьба, поблагодарите релизера, оцените раздачу и оставьте свои комментарий, если Вы скачали Девушка моего лучшего друга через торрент бесплатно! Внесите свою лепту в развитие PiratBit!
    Комментировать посты могут только пользователи прошедшие не сложную регистрацию
    Показать сообщения:    

    Девушка моего лучшего друга через торрент
    Скачать бесплатно Девушка моего лучшего друга
    Девушка моего лучшего друга скачать торрент
    Девушка моего лучшего друга смотреть онлайн
    Cкачать фильм Девушка моего лучшего друга бесплатно
    Девушка моего лучшего друга скачать торрент в хорошем качестве
    Девушка моего лучшего друга смотреть онлайн бесплатно в хорошем качестве


    Вы не можете начинать темы
    Вы не можете отвечать на сообщения
    Вы не можете редактировать свои сообщения
    Вы не можете удалять свои сообщения
    Вы не можете голосовать в опросах
    Вы не можете прикреплять файлы к сообщениям
    Вы можете скачивать файлы