Ссылка на приватное зеркало нашего сайта всего за 1$. Внимание количество ограничено!!!

2 сезон

iTunes

1 сезон

1

2 сезон

2 сезон

iTunes

1 сезон

RePack

30

Ultimate

ВАЖНО

ИГРА 18+

pack

RePack

MK11
pack

Забери бонус

RePack

jed

!!Акция!!

Alien_Rage

RePack

fifa19

RePack

Assassins Creed: Odyssey

RePack

NEED FOR SPEED™ PAYBACK

4 сезон

9 сезон

Бесстыжие 9 сезон

Все сериалы

все сериалы на PB.wtf

RePack

FAR CRY 5
  

Ривердэйл / Riverdale / Сезон 1 / Серии 1-13 из 13 (Ли Толанд Кригер, Ли Роуз) [2017, драма, WEBRip] MVO [LostFilm] pb.wtf

Ривердэйл через торрент pb.wtf

Размер: 5.92 GB | Добавлен: 3 года 3 мес. назад | Торрент скачан:371 раз
Скачать  

13-08-2017 06:52 Ривердэйл Скачать торрент  

Ривердэйл / RiverdaleГод выпуска: 2017
Страна: США
Жанр: драма
Продолжительность: 13 ~ 00:47:00
Перевод: Профессиональный многоголосый
Субтитры: отсутствуют

Режиссер: Ли Толанд Кригер, Ли Роуз

rating

В ролях:

Марисоль Николс, Кей Джей Апа, Коул Спроус, Камила Мендес, Лили Рейнхарт, Эшли Мюррэй, Кейси Котт, Люк Перри, Шеннон Пёрсер и др.

Описание:

Сериал расскажет о жизни и приключениях жизнерадостного и никогда не унывающего подростка Арчи Эндрюса, а также Бэтти Купер, Вероники Лодж и их друзей из Ривердэйла. Действие разворачивается в современном мире, а главные герои решают исследовать сокрытую от посторонних сторону жизни маленького мирного городка со всеми его странностями и тёмными тайнами, прячущимися за праздничным фасадом.

Качество: WEBRip
Формат: AVI
Видео кодек: XviD
Аудио кодек: MP3

Видео: ~ 1150 kbps, 720x400 (16:9), 23.976 fps
Аудио: RUS: MP3, 48 KHz, 2 ch, 192 kbps


скриншот   скриншот   скриншот   скриншот  

Общее
Полное имя : D:\Ривердэйл (Season 1) lostfilm\Riverdale.S01E01.rus.LostFilm.TV.avi
Формат : AVI
Формат/Информация : Audio Video Interleave
Размер файла : 445 Мбайт
Продолжительность : 47 м. 18 с.
Режим общего битрейта : Переменный
Общий поток : 1315 Кбит/сек
Программа кодирования : Nandub v1.0rc2
Библиотека кодирования : Nandub build 1853/release

Видео
Идентификатор : 0
Формат : MPEG-4 Visual
Профиль формата : Advanced Simple@L5
Параметр BVOP формата : Нет
Параметр QPel формата : Нет
Параметр GMC формата : Без точки перехода
Параметр матрицы формата : Default (MPEG)
Идентификатор кодека : XVID
Идентификатор кодека/Подсказка : XviD
Продолжительность : 47 м. 18 с.
Битрейт : 1117 Кбит/сек
Ширина : 720 пикселей
Высота : 400 пикселей
Соотношение сторон : 16:9
Частота кадров : 23,976 (23976/1000) кадра/сек
Цветовое пространство : YUV
Субдискретизация насыщенности : 4:2:0
Битовая глубина : 8 бит
Тип развёртки : Прогрессивная
Метод сжатия : С потерями
Бит/(Пиксели*Кадры) : 0.162
Размер потока : 378 Мбайт (85%)
Библиотека кодирования : XviD 1.2.1 (UTC 2008-12-04)

Аудио
Идентификатор : 1
Формат : MPEG Audio
Версия формата : Version 1
Профиль формата : Layer 3
Режим : Joint stereo
Расширение режима : MS Stereo
Идентификатор кодека : 55
Идентификатор кодека/Подсказка : MP3
Продолжительность : 47 м. 18 с.
Вид битрейта : Переменный
Битрейт : 192 Кбит/сек
Каналы : 2 канала
Частота : 48,0 КГц
Метод сжатия : С потерями
Размер потока : 62,8 Мбайт (14%)
Выравнивание : Соединение по промежуткам
Продолжительность промежутка : 24 мс. (0,58 видеокадр)
Время предзагрузки промежутка : 509 мс.
Библиотека кодирования : LAME3.97b
Настройки программы : -m j -V 4 -q 3 -lowpass 18.6 --abr 192

pb.wtf



Скачать Ривердэйл через торрент http://s018.radikal.ru/i526/1708/7c/764a7addc019.png Скачать фильм Ривердэйл через торрент бесплантно в хорошем качестве Описание: Сериал расскажет о жизни и приключениях жизнерадостного и никогда не унывающего подростка Арчи Эндрюса, а также Бэтти Купер, ... 10 10 7
Торрент: Зарегистрирован [2017-08-13 06:52] · скачан: 371 раз
Статус: √ проверено
Размер: 5.92 GB
Как cкачать? Как скачать Ривердэйл через торрент | qTorrent

% Раздел Тема Автор DL S | L
Зарубежные сериалы [ 40.22 GB ] Ривердэйл / Riverdale / Сезон: 1 / Серии: 1-13 из 13 [2017 Мело BDRip 1080p] MVO [TVShows] bober100 Скачать
1 | 0
Зарубежные сериалы [ 123.55 GB ] Ривердэйл / Riverdale / Сезон: 1 / Серии: 1-13 из 13 [2017 BD Remux 1080p] MVO [LostFilm] bober100 Скачать
1 | 0
Зарубежные сериалы [ 8.63 GB ] Ривердэйл / Riverdale / 1 сезон / 1-13 серии из 13 [2017 WEB-DLRip] MVO [Пифагор] bober100 Скачать
1 | 0

28-11-2019 20:33  

Отключить всю рекламу на сайте

    Дорогой пользователь! Огромная просьба, поблагодарите релизера, оцените раздачу и оставьте свои комментарий, если Вы скачали Ривердэйл через торрент бесплатно! Внесите свою лепту в развитие PiratBit!
    Комментировать посты могут только пользователи прошедшие не сложную регистрацию
    Показать сообщения:    

    Ривердэйл через торрент
    Скачать бесплатно Ривердэйл
    Ривердэйл скачать торрент
    Ривердэйл смотреть онлайн
    Cкачать фильм Ривердэйл бесплатно
    Ривердэйл скачать торрент в хорошем качестве
    Ривердэйл смотреть онлайн бесплатно в хорошем качестве


    Вы не можете начинать темы
    Вы не можете отвечать на сообщения
    Вы не можете редактировать свои сообщения
    Вы не можете удалять свои сообщения
    Вы не можете голосовать в опросах
    Вы не можете прикреплять файлы к сообщениям
    Вы можете скачивать файлы