Ссылка на приватное зеркало нашего сайта всего за 1$. Внимание количество ограничено!!!

2 сезон

iTunes

1 сезон

1

iTunes

iTunes

iTunes

1 сезон

RePack

30

ИГРА 18+

pack

ВАЖНО

!!Акция!!

Alien_RageХит недели

RePack

MK11
pack

Забери бонус

RePack

jed

!!Акция!!

Alien_Rage

RePack

fifa19

RePack

Assassins Creed: Odyssey

RePack

NEED FOR SPEED™ PAYBACK

4 сезон

9 сезон

Бесстыжие 9 сезон

Все сериалы

все сериалы на PB.wtf

RePack

FAR CRY 5
  

Уголовное дело / 1-4 серии из 4 (Наталия Средникова) [2014, детектив, криминал, WEB-DLRip] pb.wtf

Уголовное дело через торрент pb.wtf

Размер: 2.89 GB | Добавлен: 3 года 2 мес. назад | Торрент скачан:147 раз
Скачать  

13-08-2017 15:09 Уголовное дело Скачать торрент  

Уголовное дело (1-4 серии из 4)
Год выпуска: 2014
Страна: Россия
Жанр: детектив, криминал
Продолжительность: 4 x ~ 00:45:00
Субтитры: отсутствуют

Режиссер: Наталия Средникова



В ролях:

Константин Спиркин, Леонид Тележинский, Виктория Рунцова, Игорь Ливанов, Надежда Евтехова, Алексей Андреев, Максим Карушев, Ольга Ажажа, Марина Зайцева, Максим Артамонов

Описание:

Максим Климов – майор милиции, следователь в небольшом провинциальном городе Новорецк. Климов берётся за расследование самых запутанных уголовных дел вместе со своей командой – криминалистом Юлией и оперативником Гришей. Майор всегда готов довести расследование до конца, и никакие хитроумные уловки преступников не способны сбить его с верного пути. Так, Климову предстоит разобраться в необычном деле об убийстве криминального авторитета, а ныне успешного бизнесмена Савотеева и раскрыть тайну смерти бывшего заключенного Комарова, отсидевшего пятнадцать лет за убийство инкассатора. Кто же на самом деле мог желать им смерти? Майор начинает расследование, не подозревая, насколько неожиданной окажется разгадка…

Качество: WEB-DLRip
Формат: AVI
Видео кодек: XviD
Аудио кодек: AC3

Видео: 720x400 (1.80:1), 25 fps, XviD build 73 ~ 2040 kbps avg, 0.290 bit/pixel
Аудио: 48 kHz, AC3 Dolby Digital, 2/0 (L,R) ch, ~192 kbps
скриншот   скриншот   скриншот   скриншот  

General

Complete name : C:Уголовное дело.2014. Files-x3. Уголовное дело. 2014. WEB-DLRip.Files-x .avi

Format : AVI

Format/Info : Audio Video Interleave

File size : 739 MiB

Duration : 45 min 12 s

Overall bit rate : 2 285 kb/s

Writing application : VirtualDubMod 1.5.10.3 | www.virtualdub-fr.org || (build 2550/release)

Writing library : VirtualDubMod build 2550/release

Video

ID : 0

Format : MPEG-4 Visual

Format profile : Advanced Simple@L5

Format settings, BVOP : 2

Format settings, QPel : No

Format settings, GMC : No warppoints

Format settings, Matrix : Custom

Codec ID : XVID

Codec ID/Hint : XviD

Duration : 45 min 12 s

Bit rate : 2 084 kb/s

Width : 720 pixels

Height : 400 pixels

Display aspect ratio : 16:9

Frame rate : 25.000 FPS

Color space : YUV

Chroma subsampling : 4:2:0

Bit depth : 8 bits

Scan type : Progressive

Compression mode : Lossy

Bits/(Pixel*Frame) : 0.289

Stream size : 674 MiB (91%)

Writing library : XviD 73

Audio

ID : 1

Format : AC-3

Format/Info : Audio Coding 3

Format settings, Endianness : Big

Codec ID : 2000

Duration : 45 min 12 s

Bit rate mode : Constant

Bit rate : 192 kb/s

Channel(s) : 2 channels

Channel positions : Front: L R

Sampling rate : 48.0 kHz

Frame rate : 31.250 FPS (1536 SPF)

Bit depth : 16 bits

Compression mode : Lossy

Stream size : 62.1 MiB (8%)

Alignment : Split accross interleaves

Interleave, duration : 40 ms (1.00 video frame)

Interleave, preload duratio : 500 ms

Service kind : Complete Main
pb.wtf



Скачать Уголовное дело через торрент http://rudb.org/img/2017_07/i59736a8f0cf61.jpg Скачать фильм Уголовное дело через торрент бесплантно в хорошем качестве Описание: Максим Климов – майор милиции, следователь в небольшом провинциальном городе Новорецк. Климов берётся за расследование самых ... 10 10 4
Торрент: Зарегистрирован [2017-08-13 15:09] · скачан: 147 раз
Статус: √ проверено
Размер: 2.89 GB
Как cкачать? Как скачать Уголовное дело через торрент | qTorrent

% Раздел Тема Автор DL S | L
Наши сериалы [ 2.93 GB ] Уголовное дело / Серии: 1-4 из 4 [2015 ьный фильм HDTVRip-AVC] aleksan55 Скачать
1 | 0

28-11-2019 20:33  

Отключить всю рекламу на сайте

    Дорогой пользователь! Огромная просьба, поблагодарите релизера, оцените раздачу и оставьте свои комментарий, если Вы скачали Уголовное дело через торрент бесплатно! Внесите свою лепту в развитие PiratBit!
    Комментировать посты могут только пользователи прошедшие не сложную регистрацию
    Показать сообщения:    

    Уголовное дело через торрент
    Скачать бесплатно Уголовное дело
    Уголовное дело скачать торрент
    Уголовное дело смотреть онлайн
    Cкачать фильм Уголовное дело бесплатно
    Уголовное дело скачать торрент в хорошем качестве
    Уголовное дело смотреть онлайн бесплатно в хорошем качестве


    Вы не можете начинать темы
    Вы не можете отвечать на сообщения
    Вы не можете редактировать свои сообщения
    Вы не можете удалять свои сообщения
    Вы не можете голосовать в опросах
    Вы не можете прикреплять файлы к сообщениям
    Вы можете скачивать файлы