>

7.4

iTunes

7.4

2 сезон

9.4

1 сезон

1

7.4

2 сезон

7.2

iTunes

6.0

MVO

13

6.1

iTunes

8.3

Пиратка

30

ULTIMATE

pack

9.9

Лицензия

ВАЖНО

ИГРА 18+

pack

7.3

RePack

MK11

7.7

RePack

jed

7.8

RePack

fifa19

8.5

RePack

RDR2

RePack

NEED FOR SPEED™ PAYBACK

1 сезон

9 сезон

Бесстыжие 9 сезон

Все сериалы

все сериалы на PB.wtf

RePack

FAR CRY 5

Anonymous, доброй ночи, мы катастрофически не успеваем собрать деньги на оплату серверов, помогите нам пожалуйста 5,10,15р., для нас важна любая помощь . В качестве благодарности мы отключим Вам всю рекламу на сайте (укажите свой ник в строку Ваше имя)!

×
  
Magnet ссылка

Эксперимент «Офис» / The Belko Experiment (Грег МакЛин) [2016, Ужасы, боевик, триллер, BDRip-AVC] AVO [М.Яроцкий] pb.wtf

Эксперимент «Офис» через торрент pb.wtf

Размер: 1.63 GB | Добавлен: 4 года 5 мес. назад | Торрент скачан:109 раз
Смотреть онлайн Эксперимент «Офис» | Скачать    Ребята, помогите собрать деньги на оплату серверов!!!

13-08-2017 15:50 Эксперимент «Офис» Скачать торрент  

Эксперимент «Офис» / The Belko Experiment
Год выпуска: 2016
Страна: США, Колумбия
Жанр: Ужасы, боевик, триллер
Продолжительность: 01:28:45
Перевод: Авторский (одноголосый) | М.Яроцкий
Субтитры: английские

Режиссер: Грег МакЛин

rating

В ролях:

Джон Галлахер мл., Тони Голдуин, Адриа Архона, Джон К. МакГинли, Мелони Диас, Овайн Йомэн, Шон Ганн, Брент Секстон, Джош Бренер, Давид Дастмалчян

Описание:

Американская компания "Belko", базирующаяся в Колумбии, набирает сотрудников из американцев и перевозит их в новое здание, построенное за городом и тщательно охраняемое. Каждому работнику выдаётся чип, ключи от квартиры и служебной машины. Постепенно в отделах начинается борьба за место и это ненавистно клерку Майку, который, несмотря на свою занятость и депрессию, чувствует, что в здании творится неладное. Придётся забыть ссоры, когда в один из понедельников по внутренней связи поступает команда от начальства - "Убей, или будешь убит". Восемьдесят сотрудников оказываются в ловушке - эксперимент начинает

Качество: BDRip-AVC
Формат: MKV
Видео кодек: H.264
Аудио кодек: AC3

Видео: 1024x426 (2.40:1), 23.976 fps, x264 ~1738 kbps avg, 0.166 bit/pixel
Аудио#1: 48 kHz, AC3 Dolby Digital, 3/2 (L,C,R,l,r) + LFE ch, ~448.00 kbps avg | RUS (Яроцкий)
Аудио#2: 48 kHz, AC3 Dolby Digital, 3/2 (L,C,R,l,r) + LFE ch, ~448.00 kbps avg | ENG (Original)
скриншот   скриншот   скриншот   скриншот   скриншот  

Общее
Уникальный идентификатор : 250090460500444296507523163817074826619 (0xBC25ABB0EB9A490BB85224758C211D7B)
Полное имя : D:The.Belko.Experiment.2016.BDRip(AVC).OlLanDGroup.mkv
Формат : Matroska
Версия формата : Version 2
Размер файла : 1,63 Гбайт
Продолжительность : 1 ч. 28 м.
Общий поток : 2623 Кбит/сек
Название фильма : The.Belko.Experiment.2016 - TorpedoUK
Дата кодирования : UTC 2017-08-13 14:36:36
Программа кодирования : mkvmerge v7.8.0 ('River Man') 32bit built on Apr 3 2015 12:11:22
Библиотека кодирования : libebml v1.3.1 + libmatroska v1.4.2
Обложка : Yes
Attachments : small_cover.jpg / small_cover_land.jpg / cover.jpg / cover_land.jpg

Видео
Идентификатор : 1
Формат : AVC
Формат/Информация : Advanced Video Codec
Профиль формата : High@L4.1
Параметр CABAC формата : Да
Параметр ReFrames формата : 10 кадров
Идентификатор кодека : V_MPEG4/ISO/AVC
Продолжительность : 1 ч. 28 м.
Битрейт : 1738 Кбит/сек
Ширина : 1024 пикселя
Высота : 426 пикселей
Соотношение сторон : 2,40:1
Режим частоты кадров : Постоянный
Частота кадров : 23,976 (24000/1001) кадра/сек
Цветовое пространство : YUV
Субдискретизация насыщенности : 4:2:0
Битовая глубина : 8 бит
Тип развёртки : Прогрессивная
Бит/(Пиксели*Кадры) : 0.166
Размер потока : 1,04 Гбайт (64%)
Библиотека кодирования : x264 core 146 r2538 121396c
Настройки программы : cabac=1 / ref=10 / deblock=1:-3:-3 / analyse=0x3:0x133 / me=umh / subme=11 / psy=1 / psy_rd=1.00:0.07 / mixed_ref=1 / me_range=48 / chroma_me=1 / trellis=2 / 8x8dct=1 / cqm=0 / deadzone=21,11 / fast_pskip=0 / chroma_qp_offset=-3 / threads=6 / lookahead_threads=1 / sliced_threads=0 / nr=0 / decimate=0 / interlaced=0 / bluray_compat=0 / constrained_intra=0 / bframes=10 / b_pyramid=2 / b_adapt=2 / b_bias=0 / direct=3 / weightb=1 / open_gop=0 / weightp=2 / keyint=240 / keyint_min=23 / scenecut=40 / intra_refresh=0 / rc_lookahead=40 / rc=2pass / mbtree=0 / bitrate=1738 / ratetol=1.0 / qcomp=0.60 / qpmin=0 / qpmax=69 / qpstep=4 / cplxblur=20.0 / qblur=0.5 / vbv_maxrate=50000 / vbv_bufsize=62500 / nal_hrd=none / filler=0 / ip_ratio=1.40 / pb_ratio=1.30 / aq=1:1.00
Язык : English
Default : Да
Forced : Нет

Аудио #1
Идентификатор : 2
Формат : AC-3
Формат/Информация : Audio Coding 3
Расширение режима : CM (complete main)
Параметр Endianness формата : Big
Идентификатор кодека : A_AC3
Продолжительность : 1 ч. 28 м.
Вид битрейта : Постоянный
Битрейт : 448 Кбит/сек
Каналы : 6 каналов
Расположение каналов : Front: L C R, Side: L R, LFE
Частота : 48,0 КГц
Частота кадров : 31,250 кадров/сек (1536 spf)
Битовая глубина : 16 бит
Метод сжатия : С потерями
Размер потока : 284 Мбайт (17%)
Заголовок : АП (Яроцкий)
Язык : Russian
Default : Да
Forced : Нет

Аудио #2
Идентификатор : 3
Формат : AC-3
Формат/Информация : Audio Coding 3
Расширение режима : CM (complete main)
Параметр Endianness формата : Big
Идентификатор кодека : A_AC3
Продолжительность : 1 ч. 28 м.
Вид битрейта : Постоянный
Битрейт : 448 Кбит/сек
Каналы : 6 каналов
Расположение каналов : Front: L C R, Side: L R, LFE
Частота : 48,0 КГц
Частота кадров : 31,250 кадров/сек (1536 spf)
Битовая глубина : 16 бит
Метод сжатия : С потерями
Размер потока : 284 Мбайт (17%)
Заголовок : Original
Язык : English
Default : Нет
Forced : Нет

Текст
Идентификатор : 4
Формат : UTF-8
Идентификатор кодека : S_TEXT/UTF8
Идентификатор кодека/Информация : UTF-8 Plain Text
Заголовок : SDH
Язык : English
Default : Нет
Forced : Нет

Меню
00:00:00.000 : en:Chapter 01
00:02:39.993 : en:Chapter 02
00:05:18.943 : en:Chapter 03
00:09:21.018 : en:Chapter 04
00:11:17.885 : en:Chapter 05
00:14:06.095 : en:Chapter 06
00:16:29.905 : en:Chapter 07
00:19:13.735 : en:Chapter 08
00:22:43.528 : en:Chapter 09
00:24:48.320 : en:Chapter 10
00:28:11.564 : en:Chapter 11
00:30:31.996 : en:Chapter 12
00:33:47.442 : en:Chapter 13
00:37:12.313 : en:Chapter 14
00:41:57.056 : en:Chapter 15
00:44:22.117 : en:Chapter 16
00:47:42.025 : en:Chapter 17
00:50:24.229 : en:Chapter 18
00:53:04.723 : en:Chapter 19
00:56:46.444 : en:Chapter 20
01:00:59.238 : en:Chapter 21
01:03:07.074 : en:Chapter 22
01:04:40.793 : en:Chapter 23
01:08:04.663 : en:Chapter 24
01:10:40.945 : en:Chapter 25
01:15:19.556 : en:Chapter 26
01:19:18.420 : en:Chapter 27
01:24:33.651 : en:Chapter 28

pb.wtf



Скачать Эксперимент «Офис» через торрент http://s42.radikal.ru/i096/1708/21/81b2615a803a.jpg Скачать, смотреть онлайн Эксперимент «Офис» бесплантно в хорошем качестве Описание: Американская компания "Belko", базирующаяся в Колумбии, набирает сотрудников из американцев и перевозит их в новое здание, ... 10 10 2
Торрент: Зарегистрирован [2017-08-13 15:50] · скачан: 109 раз
Статус: √ проверено
Размер: 1.63 GB
Как cкачать? Как скачать Эксперимент «Офис» через торрент | UTorrent

% Раздел Тема Автор DL S | L
T Фильмы 2016 [DVDrip, WEB-DLRip, HDrip] (DUB, MVO) [ 1.36 GB ] Эксперимент «Офис» / The Belko Experiment [2016 WEB-DLRip] killermax2013 Скачать
1 | 0
T Фильмы 2016 [DVDrip, WEB-DLRip, HDrip] (DUB, MVO) [ 1.46 GB ] Эксперимент «Офис» / The Belko Experiment [2016 BDRip] - [IVI] Twi7ter Скачать
2 | 0
Фильмы [HD 720p, 1080p] (Хороший звук DUB, MVO) [ 5.47 GB ] Эксперимент «Офис» / The Belko Experiment [2016 BDRip 1080p] DUB vitalii2108 Скачать
1 | 0
Фильмы 2016 [DVDrip, WEB-DLRip, HDrip] (DUB, MVO) [ 746 MB ] Эксперимент «Офис» / The Belko Experiment [2016 Колумбия BDRip-AVC] Dub sokol_ok Скачать
2 | 0
Фильмы 2016 [DVDrip, WEB-DLRip, HDrip] (DUB, MVO) [ 1.4 GB ] Эксперимент «Офис» / The Belko Experiment [2016 Колумбия BDRip-AVC] Dub sokol_ok Скачать
2 | 0
Официальные cаундтреки к зарубежным фильмам [ 96 MB ] OST - Эксперимент «Офис» / The Belko Experiment [Score by Tyler Bates] 2017 / MP3 / 320 kbps / Score bober100 Скачать
1 | 0
Фильмы с авторской озвучкой [ 1.46 GB ] Эксперимент «Офис» / The Belko Experiment [2016 BDRip] Авторский [Михаил Яроцкий] Twi7ter Скачать
1 | 0

28-11-2019 20:33  

Отключить всю рекламу на сайте

13-08-2017 17:10 Эксперимент «Офис» Скачать торрент  

Смотрел в кинотеатре. Неплохой фильмецpb.wtf



    Дорогой пользователь! Огромная просьба, поблагодарите релизера, оцените раздачу и оставьте свои комментарий, если Вы скачали Эксперимент «Офис» через торрент бесплатно!
    Комментировать посты могут только пользователи прошедшие не сложную регистрацию
    Показать сообщения:    

    Эксперимент «Офис» через торрент
    Скачать бесплатно Эксперимент «Офис»
    Эксперимент «Офис» скачать торрент
    Эксперимент «Офис» смотреть онлайн
    Cкачать фильм Эксперимент «Офис» бесплатно
    Эксперимент «Офис» скачать торрент в хорошем качестве
    Эксперимент «Офис» смотреть онлайн бесплатно в хорошем качестве


    Вы не можете начинать темы
    Вы не можете отвечать на сообщения
    Вы не можете редактировать свои сообщения
    Вы не можете удалять свои сообщения
    Вы не можете голосовать в опросах
    Вы не можете прикреплять файлы к сообщениям
    Вы можете скачивать файлы