2 сезон

iTunes

1 сезон

1

iTunes

iTunes

iTunes

1 сезон

RePack

30

ИГРА 18+

pack

ВАЖНО

!!Акция!!

Alien_RageХит недели

RePack

MK11
pack

Забери бонус

RePack

jed

!!Акция!!

Alien_Rage

RePack

fifa19

RePack

Assassins Creed: Odyssey

RePack

NEED FOR SPEED™ PAYBACK

4 сезон

9 сезон

Бесстыжие 9 сезон

Все сериалы

все сериалы на PB.wtf

RePack

FAR CRY 5
  

Буду жить / Серии: 1-2 из 2 (Андрей Коршунов) [2013, драма, криминал, HDTV 1080i] От R.G.Generalfilm pb.wtf

Буду жить через торрент pb.wtf

Размер: 9.08 GB | Добавлен: 3 года 2 мес. назад | Торрент скачан:62 раза
Скачать  

14-08-2017 09:19 Буду жить Скачать торрент  

Информация о фильме
Название: Буду жить
Год выпуска: 2013
Страна: Россия
Жанр: Боевик, криминал
Перевод: Не требуется [Русский]
Продолжительность: 01:28:15
Режиссер: Андрей Коршунов
В ролях: Данила Якушев, Виолетта Яровая, Руслан Ягудин, Александр Сухинин, Артур Федынко, Сергей Воробьёв, Сергей Ионкин, Казбек Кушхов, Андрей Соломыков, Елена Вербицкая, Алина Сатыева

Описание:
Спустя 12 лет в свой родной приморский город возвращается бывший спецназовец Макар Воронов. В городе его никто не ждет. Родные Макара давно умерли. Единственная любовь, Анна, вышла замуж за бывшего друга и соперника Макара Дмитрия Романова. Макар хочет начать жизнь с чистого листа, но это оказывается не так просто. Город опутан криминальными сетями семьи Романовых — Дмитрия и его отца, «хозяев» города. Бандиты Романовых творят, что хотят. На полицию у людей надежды нет. Страх и неверие в возможность что-либо изменить поселились в сердцах горожан. Макар — единственный, кто не готов подчиниться установленным в городе порядкам. Он бросает вызов этой порочной системе и постепенно становится в городе популярным человеком, готовым прийти на помощь в трудную минуту. Все это очень не нравится Дмитрию Романову. Он хочет уничтожить Макара, особенно, когда между Макаром и Анной вспыхивают старые чувства. Но внезапное исчезновение Макара может вызвать волнения в городе, которые пагубно скажутся на бизнесе Романовых, превративших город и порт в перевалочную базу для контрабанды и наркотиков. И тогда Дмитрий придумывает, как убрать Макара. Надо заставить его принять участие в подпольных боях без правил, выбрав противника, победить которого у Макара не будет ни единого шанса
Рейтинг:

Качество: HDTV 1080i
Формат: MKV
Видео: AVC, 1920x1080 (16:9), 7051 kbps, 25 fps, 0,136 bpp
Аудио: AC3 / 2.0 / 48 kHz / 192 kbps /
Семпл
скриншот   скриншот   скриншот   скриншот   скриншот   скриншот   скриншот   скриншот   скриншот   скриншот  
Общее
Уникальный идентификатор : 237490601218542583355230359695398710024 (0xB2AB06AA8A34DFF5BF1AA087F2DAAB08)
Полное имя : E:\Budu zhit.HDTV.1080i.Generalfilm\Budu zhit.s01.e01.2013.HDTV 1080i.by.White Smoke.R.G.Generalfilm.mkv
Формат : Matroska
Размер файла : 4,45 Гбайт
Продолжительность : 1 ч. 28 м.
Общий поток : 7226 Кбит/сек
Название фильма : Budu zhit.s01.e01.2015.HDTV 1080i.by.White Smoke.R.G.Generalfilm.mkv
Дата кодирования : UTC 2017-08-14 07:28:36
Программа кодирования : mkvmerge v6.8.0 ('Theme for Great Cities') 64bit built on Mar 2 2014 21:34:26
Библиотека кодирования : libebml v1.3.0 + libmatroska v1.4.1

Видео
Идентификатор : 1
Формат : AVC
Формат/Информация : Advanced Video Codec
Профиль формата : High@L4.1
Параметр CABAC формата : Да
Параметр ReFrames формата : 3 кадры
Параметры GOP формата : M=3, N=33
Идентификатор кодека : V_MPEG4/ISO/AVC
Продолжительность : 1 ч. 28 м.
Вид битрейта : Постоянный
Битрейт : 7051 Кбит/сек
Ширина : 1920 пикс.
Высота : 1080 пикс.
Соотношение сторон : 16:9
Частота кадров : 25,000 кадр/сек
Стандарт вещания : PAL
Цветовое пространство : YUV
Подвыборка цветности : 4:2:0
Битовая глубина : 8 бит
Тип развёртки : Прогрессивная
Бит/(Пиксели*Кадры) : 0.136
Размер потока : 4,25 Гбайт (95%)
Основные цвета : BT.709-5, BT.1361, IEC 61966-2-4, SMPTE RP177
Характеристики трансфера : BT.709-5, BT.1361
Коэффициенты матрицы : BT.709-5, BT.1361, IEC 61966-2-4 709, SMPTE RP177

Аудио
Идентификатор : 2
Формат : AC-3
Формат/Информация : Audio Coding 3
Расширение режима : CM (complete main)
Идентификатор кодека : A_AC3
Продолжительность : 1 ч. 28 м.
Вид битрейта : Постоянный
Битрейт : 192 Кбит/сек
Канал(ы) : 2 канала(ов)
Расположение каналов : Front: L R
Частота : 48,0 КГц
Битовая глубина : 16 бит
Метод сжатия : С потерями
Размер потока : 121 Мбайт (3%)

Релиз от:
pb.wtf



Скачать Буду жить через торрент http://i89.fastpic.ru/big/2017/0813/77/8d3dc0ec4bb331f846a8e39532be3777.jpg Скачать фильм Буду жить через торрент бесплантно в хорошем качестве Описание: Спустя 12 лет в свой родной приморский город возвращается бывший спецназовец Макар Воронов. В городе его никто не ждет. Родные ... 10 10 2
Info! Золотая раздача, скачанное не засчитывается.
Торрент: Зарегистрирован [2017-08-14 09:19] · скачан: 62 раз
Статус: √ проверено
Размер: 9.08 GB
Как cкачать? Как скачать Буду жить через торрент | qTorrent

28-11-2019 20:33  

Отключить всю рекламу на сайте

    Дорогой пользователь! Огромная просьба, поблагодарите релизера, оцените раздачу и оставьте свои комментарий, если Вы скачали Буду жить через торрент бесплатно! Внесите свою лепту в развитие PiratBit!
    Комментировать посты могут только пользователи прошедшие не сложную регистрацию
    Показать сообщения:    

    Буду жить через торрент
    Скачать бесплатно Буду жить
    Буду жить скачать торрент
    Буду жить смотреть онлайн
    Cкачать фильм Буду жить бесплатно
    Буду жить скачать торрент в хорошем качестве
    Буду жить смотреть онлайн бесплатно в хорошем качестве


    Вы не можете начинать темы
    Вы не можете отвечать на сообщения
    Вы не можете редактировать свои сообщения
    Вы не можете удалять свои сообщения
    Вы не можете голосовать в опросах
    Вы не можете прикреплять файлы к сообщениям
    Вы можете скачивать файлы