новый адрес пиратбит piratbit
Мега распродажа FORZA HORIZON 4 ULTIMATE+ВСЕ DLC+ОНЛАЙН всего за 499р. 349 руб. (супер цена). Внимание количество ограничено!!!

iTunes

1+1

iTunes

мы

iTunes

1

iTunes

Чернобыль

iTunes

Ральф против интернета

Лицензия

ПШазам

Лицензия

Игра престолов

Лицензия

30
pack

ВАЖНО

!!Акция!!

Alien_RageХит недели

RePack

Resident Evil 21

ИГРА 18+

pack

RePack

Metro:Exodus

!!Акция!!

Alien_Rage

RePack

fifa19

RePack

Assassins Creed: Odyssey

RePack

NEED FOR SPEED™ PAYBACK

3 сезон

9 сезон

Бесстыжие 9 сезон

Все сериалы

все сериалы на PB.wtf

RePack

FAR CRY 5
Ребята, катастрофически не хватает 1900р. для оплаты серверов за Октябрь (всвязи с блокировками трафик упал в 3 раза), 1-2р., выручайте.
  

Дружок (Виктор Эйсымонт) [1958, СССР, комедия, семейный, DVDRip от AVP Studio] pb.wtf

Дружок через торрент pb.wtf

Размер: 744 MB | Добавлен: 2 года 2 мес. назад | Торрент скачан:27 раз
Скачать  

14-08-2017 09:50 Дружок Скачать торрент  

Дружок
Страна: СССР
Производство: К/ст им. Горького

Жанр: комедия, семейный
Год выпуска: 1958
Продолжительность: 01:03:32

Перевод: Не требуется
Cубтитры: нет
Оригинальная аудиодорожка: русский

Режиссер: Виктор Эйсымонт

В ролях:
Виктор Коваль, Толя Птичкин, Оля Эсальнек, Марина Орданская, Фёдор Никитин, Зоя Фёдорова, Сергей Филиппов...
Об актёрах подробней

Описание:
По рассказам Николая Носова «Мишкина каша» и «Дружок».
Два восьмилетних друга Миша и Коля проводят летом на даче один день без старших. С ними были только маленькая Майка и их лохматый приятель — верный и терпеливый пес по кличке Дружок. Вечером Миша варит кашу, но её отказывается есть даже Дружок, а когда он пытается зажарить пойманную рыбу, на кухне едва не возникает пожар. Ребята ложаться спать голодными.
Утром Миша и Коля едут домой на пароходе. В чемодане они тайком везут Дружка. При высадке в суматохе они уносят чужой чемодан. Мишка пишет объявление об обмене чемоданами и о пропавшей собаке. К Мишке домой начинается паломничество людей, потерявших чемоданы. Случайно друзья узнают, что взяли чемодан своего учителя (Фёдор Никитин). Ребята наконец находят своего Дружка. Но к вечеру у квартиры Миши собирается целая очередь: по его объявлению мальчишки со всех концов города приносят собак...

Источник: DVD5 R5
Качество видео: DVDRip
Формат видео: AVI

Видео: 688x512 (4:3), 25 fps, XviD ~ 1435 kbps avg, 0.163 bit/pixel
Аудио: 48 kHz, Dolby Digital AC3 2.0, 192 kbps

Раздача от:
Общее
Полное имя : Druzhok.1958.DVDRip_[New-team]_by_AVP_Studio.avi
Формат : AVI
Формат/Информация : Audio Video Interleave
Размер файла : 744 Мбайт
Продолжительность : 1 ч. 3 м.
Общий поток : 1637 Кбит/сек
Программа кодирования : VirtualDubMod 1.5.10.3 | www.virtualdub-fr.org || (build 2550/release)
Библиотека кодирования : VirtualDubMod build 2550/release

Видео
Идентификатор : 0
Формат : MPEG-4 Visual
Профиль формата : Advanced Simple@L5
Параметр BVOP формата : 1
Параметр QPel формата : Нет
Параметр GMC формата : Без точки перехода
Параметр матрицы формата : Выборочная
Идентификатор кодека : XVID
Идентификатор кодека/Подсказка : XviD
Продолжительность : 1 ч. 3 м.
Битрейт : 1435 Кбит/сек
Ширина : 688 пикселей
Высота : 512 пикселей
Соотношение сторон : 4:3
Частота кадров : 25,000 кадров/сек
Цветовое пространство : YUV
Субдискретизация насыщенности : 4:2:0
Битовая глубина : 8 бит
Тип развёртки : Прогрессивная
Метод сжатия : С потерями
Бит/(Пиксели*Кадры) : 0.163
Размер потока : 652 Мбайт (88%)
Библиотека кодирования : XviD 73

Аудио
Идентификатор : 1
Формат : AC-3
Формат/Информация : Audio Coding 3
Параметр Endianness формата : Big
Идентификатор кодека : 2000
Продолжительность : 1 ч. 3 м.
Вид битрейта : Постоянный
Битрейт : 192 Кбит/сек
Каналы : 2 канала
Расположение каналов : Front: L R
Частота : 48,0 КГц
Частота кадров : 31,250 кадров/сек (1536 SPF)
Битовая глубина : 16 бит
Метод сжатия : С потерями
Размер потока : 87,2 Мбайт (12%)
Выравнивание : Разделение по промежуткам
Продолжительность промежутка : 40 мс. (1,00 видеокадр)
Время предзагрузки промежутка : 500 мс
pb.wtf



Скачать Дружок через торрент http://s009.radikal.ru/i310/1708/02/56cd89c5a0b2.png Скачать фильм Дружок через торрент бесплантно в хорошем качестве Описание:По рассказам Николая Носова «Мишкина каша» и «Дружок».Два восьмилетних друга Миша и Коля проводят летом на даче один день без ... 10 10 1
Info! Золотая раздача, скачанное не засчитывается.
Торрент: Зарегистрирован [2017-08-14 09:50] · скачан: 27 раз
Статус: √ проверено
Размер: 744 MB
Как cкачать? Как скачать Дружок через торрент | qTorrent

% Раздел Тема Автор DL S | L
Кино СССР [ 745 MB ] Дружок [1958 СССР DVDRip-AVC от AVP Studio] AVP Studio Скачать
1 | 0


>> Регистрируемся здесь <<






Отзывы и комментарии о схеме читаем и пишем здесь: ---> Отзывы и комментарии о схеме

Новые благодарочки в телеграм довольных пользователей:
скриншот   скриншот   скриншот   скриншот   скриншот
    Дорогой пользователь! Огромная просьба, поблагодарите релизера, оцените раздачу и оставьте свои комментарий, если Вы скачали Дружок через торрент бесплатно! Внесите свою лепту в развитие PiratBit!
    Комментировать посты могут только пользователи прошедшие не сложную регистрацию
    Показать сообщения:    

    Дружок через торрент
    Скачать бесплатно Дружок
    Дружок скачать торрент
    Дружок смотреть онлайн
    Cкачать фильм Дружок бесплатно
    Дружок скачать торрент в хорошем качестве
    Дружок смотреть онлайн бесплатно в хорошем качестве


    Вы не можете начинать темы
    Вы не можете отвечать на сообщения
    Вы не можете редактировать свои сообщения
    Вы не можете удалять свои сообщения
    Вы не можете голосовать в опросах
    Вы не можете прикреплять файлы к сообщениям
    Вы можете скачивать файлы