новый адрес
Мега распродажа FORZA HORIZON 4 ULTIMATE+ВСЕ DLC+ОНЛАЙН всего за 499р. 349 руб. (супер цена). Внимание количество ограничено!!!

iTunes

1+1

iTunes

мы

iTunes

1

iTunes

Чернобыль

iTunes

Ральф против интернета

Лицензия

ПШазам

Лицензия

Игра престолов

Лицензия

30
pack

ВАЖНО

!!Акция!!

Alien_RageХит недели

RePack

Resident Evil 21

ИГРА 18+

pack

RePack

Metro:Exodus

!!Акция!!

Alien_Rage

RePack

fifa19

RePack

Assassins Creed: Odyssey

RePack

NEED FOR SPEED™ PAYBACK

3 сезон

9 сезон

Бесстыжие 9 сезон

Все сериалы

все сериалы на PB.wtf

RePack

FAR CRY 5
Ребята, катастрофически не хватает 1900р. для оплаты серверов за Октябрь (всвязи с блокировками трафик упал в 3 раза), 1-2р., выручайте.
  

Над Тиссой (Дмитрий Васильев) [1958, СССР, детектив, приключения, шпионский фильм, DVDRip от AVP Studio] pb.wtf

Над Тиссой через торрент pb.wtf

Размер: 744 MB | Добавлен: 2 года 3 мес. назад | Торрент скачан:23 раза
Скачать  

15-08-2017 08:21 Над Тиссой Скачать торрент  

Над Тиссой
Страна: СССР
Производство: Мосфильм

Жанр: детектив, приключения, шпионский фильм
Год выпуска: 1958
Продолжительность: 01:19:13

Перевод: Не требуется
Cубтитры: нет
Оригинальная аудиодорожка: русский

Режиссер: Дмитрий Васильев

В ролях:
Афанасий Кочетков, Татьяна Конюхова, Нина Никитина, Андрей Гончаров (II), Александр Хвыля, Дмитрий Дубов, Леонид Чубаров, Виктор Соломатин, Владимир Гусев, Валентин Зубков, Степан Каюков, Николай Крючков, Константин Старостин...
Об актёрах подробней

Описание:
Военно-приключенческую повесть Александра Авдеенко "Над Тиссой" печатали в 1954 году из номера в номер в газете ... "Пионерская правда". Печатали, наверное, целый год - газетка маленькая. Ребята рвали газету друг у друга из рук - поскорее узнать, что же там дальше...
Убит старшина Белограй, возвращавшийся на Родину со сверхсрочной службы в ГСВГ. Его документами завладел иностранный шпион Кларк (Валентин Зубков). Под видом Белограя он прибывает в закарпатское село, где живет Терезия Симак (Татьяна Конюхова), которая познакомилась со старшиной по переписке. В Терезию влюблен Андрей Смолярчук (Афанасий Кочетков), старшина-пограничник с соседней заставы, но девушке понравился Белограй-Кларк. Начинается подготовка к свадьбе...
Тем временем Кларк со своими пособниками готовят взрыв стратегически важного моста...
Фильм вошел в десятку самых популярных картин отечественного кинематографа конца 50-х годов ХХ века. Эта лента стала лидером проката 1959 года, ее посмотрело 45 млн зрителей.

Источник: DVD5 R5
Качество видео: DVDRip
Формат видео: AVI

Видео: 640x480 (4:3), 25 fps, XviD ~ 1175 kbps avg, 0.153 bit/pixel
Аудио: 48 kHz, MP3 2.0, 128 kbps

Раздача от:
Общее
Полное имя : Nad.Tissoy.1958.DVDRip-745_[New-team]_by_AVP_Studio.avi
Формат : AVI
Формат/Информация : Audio Video Interleave
Размер файла : 744 Мбайт
Продолжительность : 1 ч. 19 м.
Общий поток : 1313 Кбит/сек
Программа кодирования : VirtualDubMod 1.5.10.3 | www.virtualdub-fr.org || (build 2550/release)
Библиотека кодирования : VirtualDubMod build 2550/release

Видео
Идентификатор : 0
Формат : MPEG-4 Visual
Профиль формата : Advanced Simple@L5
Параметр BVOP формата : 1
Параметр QPel формата : Нет
Параметр GMC формата : Без точки перехода
Параметр матрицы формата : Выборочная
Идентификатор кодека : XVID
Идентификатор кодека/Подсказка : XviD
Продолжительность : 1 ч. 19 м.
Битрейт : 1175 Кбит/сек
Ширина : 640 пикселей
Высота : 480 пикселей
Соотношение сторон : 4:3
Частота кадров : 25,000 кадров/сек
Цветовое пространство : YUV
Субдискретизация насыщенности : 4:2:0
Битовая глубина : 8 бит
Тип развёртки : Прогрессивная
Метод сжатия : С потерями
Бит/(Пиксели*Кадры) : 0.153
Размер потока : 666 Мбайт (90%)
Библиотека кодирования : XviD 73

Аудио
Идентификатор : 1
Формат : MPEG Audio
Версия формата : Version 1
Профиль формата : Layer 3
Идентификатор кодека : 55
Идентификатор кодека/Подсказка : MP3
Продолжительность : 1 ч. 19 м.
Вид битрейта : Постоянный
Битрейт : 128 Кбит/сек
Каналы : 2 канала
Частота : 48,0 КГц
Метод сжатия : С потерями
Размер потока : 72,5 Мбайт (10%)
Выравнивание : Соединение по промежуткам
Продолжительность промежутка : 40 мс. (1,00 видеокадр)
Время предзагрузки промежутка : 504 мс.
Библиотека кодирования : LAME3.99r
Настройки программы : -m s -V 4 -q 2 -lowpass 17 -b 128
pb.wtf



Скачать Над Тиссой через торрент http://s011.radikal.ru/i316/1708/bd/9a5da126a2dd.png Скачать фильм Над Тиссой через торрент бесплантно в хорошем качестве Описание:Военно-приключенческую повесть Александра Авдеенко "Над Тиссой" печатали в 1954 году из номера в номер в газете ... "Пионерская ... 5 10 1
Info! Золотая раздача, скачанное не засчитывается.
Торрент: Зарегистрирован [2017-08-15 08:21] · скачан: 23 раз
Статус: √ проверено
Размер: 744 MB
Как cкачать? Как скачать Над Тиссой через торрент | qTorrent

% Раздел Тема Автор DL S | L
Кино СССР [ 1.09 GB ] Над Тиссой [1958 СССР шпионский фильм DVDRip-AVC от AVP Studio] AVP Studio Скачать
1 | 0
Кино СССР [ 1.09 GB ] Над Тиссой [1958 СССР шпионский фильм DVDRip от AVP Studio] AVP Studio Скачать
1 | 0


>> Регистрируемся здесь <<






Отзывы и комментарии о схеме читаем и пишем здесь: ---> Отзывы и комментарии о схеме

Новые благодарочки в телеграм довольных пользователей:
скриншот   скриншот   скриншот   скриншот   скриншот
    Дорогой пользователь! Огромная просьба, поблагодарите релизера, оцените раздачу и оставьте свои комментарий, если Вы скачали Над Тиссой через торрент бесплатно! Внесите свою лепту в развитие PiratBit!
    Комментировать посты могут только пользователи прошедшие не сложную регистрацию
    Показать сообщения:    

    Над Тиссой через торрент
    Скачать бесплатно Над Тиссой
    Над Тиссой скачать торрент
    Над Тиссой смотреть онлайн
    Cкачать фильм Над Тиссой бесплатно
    Над Тиссой скачать торрент в хорошем качестве
    Над Тиссой смотреть онлайн бесплатно в хорошем качестве


    Вы не можете начинать темы
    Вы не можете отвечать на сообщения
    Вы не можете редактировать свои сообщения
    Вы не можете удалять свои сообщения
    Вы не можете голосовать в опросах
    Вы не можете прикреплять файлы к сообщениям
    Вы можете скачивать файлы