Всегда рабочее зеркало без VPN и Proxy просто перед .vidak.icu напиши любое слово или цифру, Пример http://zoii.vidak.icu

MVO

2 сезон

2 сезон

1

1 сезон

iTunes

2 сезон

13

1 сезон

Распродажа

pack

Рекомендуем

Пиратка

30

ВАЖНО

RePack

MK11

RePack

jed

RePack

fifa19

RePack

RDR2

RePack

NEED FOR SPEED™ PAYBACK

Кинопоиск HD

6 сезон

 Острые козырьки 6 сезон

Все сериалы

все сериалы на PB.wtf

RePack

FAR CRY 5

Anonymous, нам критически не хватает 5601 руб. на оплату серверов и переферии за Апрель, помоги нам пожалуйста, вся надежда только на тебя. В благодарность мы отключим тебе всю рекламу на сайте!

×
  
Magnet ссылка

Над Тиссой (Дмитрий Васильев) [1958, СССР, детектив, приключения, шпионский фильм, DVDRip-AVC от AVP Studio] pb.wtf

Над Тиссой через торрент pb.wtf

Размер: 1.09 GB | Добавлен: 4 года 9 мес. назад | Торрент скачан:28 раз
Смотреть онлайн Над Тиссой | Скачать    Ребята, помогите собрать деньги на оплату серверов!!!

15-08-2017 08:22 Над Тиссой Скачать торрент  

Над Тиссой
Страна: СССР
Производство: Мосфильм

Жанр: детектив, приключения, шпионский фильм
Год выпуска: 1958
Продолжительность: 01:19:13

Перевод: Не требуется
Cубтитры: нет
Оригинальная аудиодорожка: русский

Режиссер: Дмитрий Васильев

В ролях:
Афанасий Кочетков, Татьяна Конюхова, Нина Никитина, Андрей Гончаров (II), Александр Хвыля, Дмитрий Дубов, Леонид Чубаров, Виктор Соломатин, Владимир Гусев, Валентин Зубков, Степан Каюков, Николай Крючков, Константин Старостин...
Об актёрах подробней

Описание:
Военно-приключенческую повесть Александра Авдеенко "Над Тиссой" печатали в 1954 году из номера в номер в газете ... "Пионерская правда". Печатали, наверное, целый год - газетка маленькая. Ребята рвали газету друг у друга из рук - поскорее узнать, что же там дальше...
Убит старшина Белограй, возвращавшийся на Родину со сверхсрочной службы в ГСВГ. Его документами завладел иностранный шпион Кларк (Валентин Зубков). Под видом Белограя он прибывает в закарпатское село, где живет Терезия Симак (Татьяна Конюхова), которая познакомилась со старшиной по переписке. В Терезию влюблен Андрей Смолярчук (Афанасий Кочетков), старшина-пограничник с соседней заставы, но девушке понравился Белограй-Кларк. Начинается подготовка к свадьбе...
Тем временем Кларк со своими пособниками готовят взрыв стратегически важного моста...
Фильм вошел в десятку самых популярных картин отечественного кинематографа конца 50-х годов ХХ века. Эта лента стала лидером проката 1959 года, ее посмотрело 45 млн зрителей.

Источник: DVD5 R5
Качество видео: DVDRip-AVC
Формат видео: MKV

Видео: 704->742x556 (4:3), 25 fps, H264 ~ 1582 kbps avg, 0.162 bit/pixel
Аудио: 48 kHz, Dolby Digital AC3 5.1, 384 kbps

Раздача от:
Общее
Полное имя : Nad.Tissoy.1958.DVDRip-AVC_[New-team]_by_AVP_Studio.mkv
Формат : Matroska
Версия формата : Version 2
Размер файла : 1,09 Гбайт
Продолжительность : 1 ч. 19 м.
Общий поток : 1968 Кбит/сек
Дата кодирования : UTC 2017-08-13 19:17:27
Программа кодирования : mkvmerge v6.1.0 ('Old Devil') built on Mar 4 2013 09:10:42
Библиотека кодирования : libebml v1.3.0 + libmatroska v1.4.0

Видео
Идентификатор : 1
Формат : AVC
Формат/Информация : Advanced Video Codec
Профиль формата : High@L4.1
Параметр CABAC формата : Да
Параметр RefFrames формата : 10 кадров
Идентификатор кодека : V_MPEG4/ISO/AVC
Продолжительность : 1 ч. 19 м.
Битрейт : 1582 Кбит/сек
Ширина : 704 пикселя
Высота : 556 пикселей
Соотношение сторон : 4:3
Режим частоты кадров : Постоянный
Частота кадров : 25,000 кадров/сек
Цветовое пространство : YUV
Субдискретизация насыщенности : 4:2:0
Битовая глубина : 8 бит
Тип развёртки : Прогрессивная
Бит/(Пиксели*Кадры) : 0.162
Размер потока : 875 Мбайт (78%)
Библиотека кодирования : x264 core 130 r2273 b3065e6
Настройки программы : cabac=1 / ref=10 / deblock=1:-2:-1 / analyse=0x3:0x113 / me=umh / subme=10 / psy=1 / psy_rd=1.00:0.00 / mixed_ref=1 / me_range=32 / chroma_me=1 / trellis=2 / 8x8dct=1 / cqm=0 / deadzone=21,11 / fast_pskip=1 / chroma_qp_offset=-2 / threads=6 / lookahead_threads=1 / sliced_threads=0 / nr=0 / decimate=0 / interlaced=0 / bluray_compat=0 / constrained_intra=0 / bframes=8 / b_pyramid=2 / b_adapt=2 / b_bias=0 / direct=3 / weightb=1 / open_gop=0 / weightp=2 / keyint=250 / keyint_min=25 / scenecut=40 / intra_refresh=0 / rc=2pass / mbtree=0 / bitrate=1582 / ratetol=1.0 / qcomp=0.60 / qpmin=0 / qpmax=69 / qpstep=4 / cplxblur=20.0 / qblur=0.5 / ip_ratio=1.40 / pb_ratio=1.30 / aq=1:1.00
Default : Да
Forced : Нет

Аудио
Идентификатор : 2
Формат : AC-3
Формат/Информация : Audio Coding 3
Параметр Endianness формата : Big
Идентификатор кодека : A_AC3
Продолжительность : 1 ч. 19 м.
Вид битрейта : Постоянный
Битрейт : 384 Кбит/сек
Каналы : 6 каналов
Расположение каналов : Front: L C R, Side: L R, LFE
Частота : 48,0 КГц
Частота кадров : 31,250 кадров/сек (1536 SPF)
Битовая глубина : 16 бит
Метод сжатия : С потерями
Размер потока : 218 Мбайт (20%)
Default : Да
Forced : Нет
pb.wtf



Скачать Над Тиссой через торрент http://s011.radikal.ru/i316/1708/bd/9a5da126a2dd.png Скачать, смотреть онлайн Над Тиссой бесплантно в хорошем качестве Описание:Военно-приключенческую повесть Александра Авдеенко "Над Тиссой" печатали в 1954 году из номера в номер в газете ... "Пионерская ... 5 10 1
Info! Золотая раздача, скачанное не засчитывается.
Торрент: Зарегистрирован [2017-08-15 08:22] · скачан: 28 раз
Статус: √ проверено
Размер: 1.09 GB
Как cкачать? Как скачать Над Тиссой через торрент | UTorrent

% Раздел Тема Автор DL S | L
Кино СССР [ 744 MB ] Над Тиссой [1958 СССР шпионский фильм DVDRip от AVP Studio] AVP Studio Скачать
1 | 0
Кино СССР [ 1.09 GB ] Над Тиссой [1958 СССР шпионский фильм DVDRip от AVP Studio] AVP Studio Скачать
1 | 0

28-11-2019 20:33  

Отключить всю рекламу на сайте

    Дорогой пользователь! Огромная просьба, поблагодарите релизера, оцените раздачу и оставьте свои комментарий, если Вы скачали Над Тиссой через торрент бесплатно!
    Комментировать посты могут только пользователи прошедшие не сложную регистрацию
    Показать сообщения:    

    Над Тиссой через торрент
    Скачать бесплатно Над Тиссой
    Над Тиссой скачать торрент
    Над Тиссой смотреть онлайн
    Cкачать фильм Над Тиссой бесплатно
    Над Тиссой скачать торрент в хорошем качестве
    Над Тиссой смотреть онлайн бесплатно в хорошем качестве


    Вы не можете начинать темы
    Вы не можете отвечать на сообщения
    Вы не можете редактировать свои сообщения
    Вы не можете удалять свои сообщения
    Вы не можете голосовать в опросах
    Вы не можете прикреплять файлы к сообщениям
    Вы можете скачивать файлы