Ссылка на приватное зеркало всего за 1$. Внимание количество ограничено!!!

iTunes

iTunes

iTunes

1

iTunes

iTunes

iTunes

WEBRip

iTunes

30
pack

$ от Little Big

ВАЖНО

!!Акция!!

Alien_RageХит недели

RePack

Resident Evil 21

ИГРА 18+

pack

RePack

jed

!!Акция!!

Alien_Rage

RePack

fifa19

RePack

Assassins Creed: Odyssey

RePack

NEED FOR SPEED™ PAYBACK

4 сезон

9 сезон

Бесстыжие 9 сезон

Все сериалы

все сериалы на PB.wtf

RePack

FAR CRY 5
  

Голышом / Naked (Майкл Тиддес) [2017, комедия, WEB-DL 1080p] MVO [MUZOBOZ] pb.wtf

Голышом через торрент pb.wtf

Размер: 3.64 GB | Добавлен: 2 года 11 мес. назад | Торрент скачан:841 раз
Скачать  

15-08-2017 13:27 Голышом Скачать торрент  

Голышом / Naked
Год выпуска: 2017
Страна: США
Жанр: комедия
Продолжительность: 01:37:49
Перевод: Любительский (многоголосый) | MUZOBOZ
Субтитры: отсутствуют

Режиссер: Майкл Тиддес

rating

В ролях:

Реджина Холл, Марлон Уайанс, Нил Браун мл., Деннис Хейсбёрт, Лоретта Дивайн, Дейв Шеридан, Кори Хардрикт, Жуль Хевн, Джейсон Дэвис, Джондэйс Кэндес

Описание:

День свадьбы Роба Андерсона превращается в «день сурка», который будет повторяться снова и снова, пока злополучный жених не доберётся до венца. Проблема в том, что каждый раз Роб просыпается на полу лифта, без одежды и в беспамятстве, а до свадьбы остаётся всего час…

Качество: WEB-DL 1080p
Формат: MKV
Видео кодек: H.264
Аудио кодек: AC3

Видео: 1920x960, 23.976 fps, 4942 Кбит/с
Аудио: 384 kb/s, 2 ch, 48.0 KHz


скриншот   скриншот   скриншот  

Общее
Уникальный идентификатор : 253998924740775754024404248020804472766 (0xBF1669DB238543ABA60007CC4CD48FBE)
Полное имя : D:\Naked.2017.P.WEB-DL.1O8Op_KOSHARA.mkv
Формат : Matroska
Версия формата : Version 2
Размер файла : 3,64 Гбайт
Продолжительность : 1 ч. 37 м.
Режим общего битрейта : Переменный
Общий поток : 5328 Кбит/сек
Дата кодирования : UTC 2017-08-14 10:57:19
Программа кодирования : mkvmerge v8.3.0 ('Over the Horizon') 64bit
Библиотека кодирования : libebml v1.3.1 + libmatroska v1.4.2

Видео
Идентификатор : 1
Формат : AVC
Формат/Информация : Advanced Video Codec
Профиль формата : High@L4.1
Параметр CABAC формата : Да
Параметр ReFrames формата : 4 кадра
Идентификатор кодека : V_MPEG4/ISO/AVC
Продолжительность : 1 ч. 37 м.
Вид битрейта : Переменный
Битрейт : 4942 Кбит/сек
Максимальный битрейт : 5500 Кбит/сек
Ширина : 1920 пикселей
Высота : 960 пикселей
Соотношение сторон : 2,000
Режим частоты кадров : Постоянный
Частота кадров : 23,976 (24000/1001) кадра/сек
Стандарт вещания : Component
Цветовое пространство : YUV
Субдискретизация насыщенности : 4:2:0
Битовая глубина : 8 бит
Тип развёртки : Прогрессивная
Бит/(Пиксели*Кадры) : 0.112
Размер потока : 3,38 Гбайт (93%)
Default : Да
Forced : Нет
Цветовой диапазон : Limited
Основные цвета : BT.709
Характеристики трансфера : BT.709
Коэффициенты матрицы : BT.709

Аудио
Идентификатор : 2
Формат : AC-3
Формат/Информация : Audio Coding 3
Расширение режима : CM (complete main)
Параметр Endianness формата : Big
Идентификатор кодека : A_AC3
Продолжительность : 1 ч. 37 м.
Вид битрейта : Постоянный
Битрейт : 384 Кбит/сек
Каналы : 2 канала
Расположение каналов : Front: L R
Частота : 48,0 КГц
Частота кадров : 31,250 кадров/сек (1536 spf)
Метод сжатия : С потерями
Размер потока : 269 Мбайт (7%)
Default : Да
Forced : Нет
pb.wtf



Скачать Голышом через торрент http://i92.fastpic.ru/big/2017/0814/cc/a290adfc3363269d48d9925f925c56cc.png Скачать фильм Голышом через торрент бесплантно в хорошем качестве Описание: День свадьбы Роба Андерсона превращается в «день сурка», который будет повторяться снова и снова, пока злополучный жених не ... 9.3 10 19
Торрент: Зарегистрирован [2017-08-15 13:27] · скачан: 841 раз
Статус: T временная
Размер: 3.64 GB
Как cкачать? Как скачать Голышом через торрент | qTorrent

% Раздел Тема Автор DL S | L
T Релизы по Парсеру [Игры, Сериалы и Фильмы и другое...] [ 1.37 GB ] Голышом / Naked [2017 WEB-DLRip] MVO [MUZOBOZ] bober100 Скачать
2 | 0
T Релизы по Парсеру [Игры, Сериалы и Фильмы и другое...] [ 2.9 GB ] Голышом / Naked [2017 WEB-DL 720p] [MVO] killermax2013 Скачать
1 | 0
HD ролики [ 379 MB ] Гимнастика голышом и секс вдогонку [2015 naked girls flexible girls HDRip] Grizzly93rus Скачать
1 | 0

28-11-2019 20:33  

Отключить всю рекламу на сайте

15-08-2017 13:54 Голышом Скачать торрент  

Старый он уже, 45 лет нигеру.pb.wtf



15-08-2017 16:41 Голышом Скачать торрент  

Вроде шведы лет 8 назад сняли фильм с таким сюжетом...pb.wtf



16-08-2017 15:36 Голышом Скачать торрент  

южный централ конечно молодец-выглядит отлично.но это не..без чувств...когда хочется пересмотреть.скучный и не смешной фильмец.pb.wtf



16-08-2017 18:47 Голышом Скачать торрент  

по оценкам разок посмотреть можно, но только в бубняже, а так оценка еще на пол бала, на бал падаетpb.wtf



26-08-2017 16:11 Голышом Скачать торрент  

Ребят, посмотреть можно. фильм на самом деле не то что комедия, но над некоторыми фразами стоит задуматься;)pb.wtf



13-01-2018 19:38 Голышом Скачать торрент  

файл, глючит сразу спустя 10 минут просмотраpb.wtf



    Дорогой пользователь! Огромная просьба, поблагодарите релизера, оцените раздачу и оставьте свои комментарий, если Вы скачали Голышом через торрент бесплатно! Внесите свою лепту в развитие PiratBit!
    Комментировать посты могут только пользователи прошедшие не сложную регистрацию
    Показать сообщения:    

    Голышом через торрент
    Скачать бесплатно Голышом
    Голышом скачать торрент
    Голышом смотреть онлайн
    Cкачать фильм Голышом бесплатно
    Голышом скачать торрент в хорошем качестве
    Голышом смотреть онлайн бесплатно в хорошем качестве


    Вы не можете начинать темы
    Вы не можете отвечать на сообщения
    Вы не можете редактировать свои сообщения
    Вы не можете удалять свои сообщения
    Вы не можете голосовать в опросах
    Вы не можете прикреплять файлы к сообщениям
    Вы можете скачивать файлы