Ссылка на приватное зеркало нашего сайта всего за 1$. Внимание количество ограничено!!!

2 сезон

iTunes

1 сезон

1

2 сезон

2 сезон

iTunes

1 сезон

RePack

30

Ultimate

ВАЖНО

ИГРА 18+

pack

RePack

MK11
pack

Забери бонус

RePack

jed

!!Акция!!

Alien_Rage

RePack

fifa19

RePack

Assassins Creed: Odyssey

RePack

NEED FOR SPEED™ PAYBACK

4 сезон

9 сезон

Бесстыжие 9 сезон

Все сериалы

все сериалы на PB.wtf

RePack

FAR CRY 5
  

У друзей жизнь лучше / Friends with Better Lives / Сезон 1 / Серии 1-13 из 13 (Фред Сэвэдж, Тодд Холлэнд, Фил Льюис) [2014 г., комедия, ситком, HDTVRip] MVO (ApofysTeam) pb.wtf

У друзей жизнь лучше через торрент pb.wtf

Размер: 4.97 GB | Добавлен: 3 года 3 мес. назад | Торрент скачан:23 раза
Скачать  

16-08-2017 04:24 У друзей жизнь лучше Скачать торрент  

У друзей жизнь лучше / Friends with Better Lives
Год выпуска: 2014
Страна: США
Жанр: комедия, ситком
Продолжительность: 13 x ~ 00:21:00
Перевод: Любительский многоголосый (ApofysTeam)
Субтитры: отсутствуют

Режиссер: Фред Сэвэдж, Тодд Холлэнд, Фил Льюис
В ролях: Джеймс Ван Дер Бик, Маджандра Делфино, Зои Листер Джонс, Бруклин Декер, Рик Дональд, Кевин Коннолли, Смит Чо, Стефани Фэраси, Меган Фей, Марк Фойерстин

rating

Описание: Главные действующие лица комедийного сериала - шестеро друзей, которые уже давно живут взрослой жизнью, но порой ведут себя как дети. Каждый из них по-своему счастлив, но при этом втайне завидует своим друзьям, ведь им кажется, что те удачливее и живется им гораздо легче. Джулия встречает мужчину своей мечты - Лоуэлла. Во время бурного романа у них рождается идея пожениться. Эти события заставляют их друзей присмотреться тщательнее к своей жизни, ведь у каждого из них, по их мнению, не настолько все хорошо, как у влюбленной парочки. Уилл вовсе разводится со своей женой, потому как благоверная изменила ему с его же подчиненным, отчего он становится циником и присоединяется в ряды «вечных» холостяков. Бобби и Энди вроде как счастливы в браке, но никак не могут принять серьезное решение, так как не хотят брать на себя ответственность. А Кейт успешна в карьере, но так и не нашедшая своей второй половинки.

Качество: HDTVRip
Формат: AVI
Видео кодек: DivX
Аудио кодек: MP3
Видео: 720x404 (16:9), 29.976 fps ~ 2000-2500 Kbps
Аудио: 44.1 KHz 2 ch ~ 128-192 Kb/s
скриншот   скриншот   скриншот   скриншот   скриншот   скриншот   скриншот  

Общее
Полное имя : Q:\TorF\FWBL_S01_rus\FWBL.S01E01.rus.ApofysTeam.avi
Формат : AVI
Формат/Информация : Audio Video Interleave
Размер файла : 330 Мбайт
Продолжительность : 21 м.
Общий поток : 2140 Кбит/сек
Программа кодирования : Lavf53.18.0
Библиотека кодирования : VirtualDub build 34703/release

Видео
Идентификатор : 0
Формат : MPEG-4 Visual
Профиль формата : Simple@L1
Параметр BVOP формата : Нет
Параметр QPel формата : Нет
Параметр GMC формата : Без точки перехода
Параметр матрицы формата : Default (H.263)
Идентификатор кодека : DX50
Идентификатор кодека/Подсказка : DivX 5
Продолжительность : 21 м.
Битрейт : 2000 Кбит/сек
Ширина : 720 пикселей
Высота : 404 пикселя
Соотношение сторон : 16:9
Частота кадров : 29,970 кадров/сек
Цветовое пространство : YUV
Субдискретизация насыщенности : 4:2:0
Битовая глубина : 8 бит
Тип развёртки : Прогрессивная
Метод сжатия : С потерями
Бит/(Пиксели*Кадры) : 0.229
Размер потока : 309 Мбайт (93%)
Библиотека кодирования : Lavc53.26.0

Аудио
Идентификатор : 1
Формат : MPEG Audio
Версия формата : Version 1
Профиль формата : Layer 3
Режим : Joint stereo
Расширение режима : MS Stereo
Идентификатор кодека : 55
Идентификатор кодека/Подсказка : MP3
Продолжительность : 21 м.
Вид битрейта : Постоянный
Битрейт : 128 Кбит/сек
Каналы : 2 канала
Частота : 44,1 КГц
Метод сжатия : С потерями
Размер потока : 19,7 Мбайт (6%)
Выравнивание : Разделение по промежуткам
Продолжительность промежутка : 33 мс. (1,00 видеокадр)
Время предзагрузки промежутка : 500 мс.

pb.wtf



Скачать У друзей жизнь лучше через торрент http://pic.kartinco.top/images/11/i7nxr.jpg Скачать фильм У друзей жизнь лучше через торрент бесплантно в хорошем качестве Описание: Главные действующие лица комедийного сериала - шестеро друзей, которые уже давно живут взрослой жизнью, но порой ведут себя как ... 10 10 1
Info! Золотая раздача, скачанное не засчитывается.
Торрент: Зарегистрирован [2017-08-16 04:24] · скачан: 23 раз
Статус: √ проверено
Размер: 4.97 GB
Как cкачать? Как скачать У друзей жизнь лучше через торрент | qTorrent

28-11-2019 20:33  

Отключить всю рекламу на сайте

    Дорогой пользователь! Огромная просьба, поблагодарите релизера, оцените раздачу и оставьте свои комментарий, если Вы скачали У друзей жизнь лучше через торрент бесплатно! Внесите свою лепту в развитие PiratBit!
    Комментировать посты могут только пользователи прошедшие не сложную регистрацию
    Показать сообщения:    

    У друзей жизнь лучше через торрент
    Скачать бесплатно У друзей жизнь лучше
    У друзей жизнь лучше скачать торрент
    У друзей жизнь лучше смотреть онлайн
    Cкачать фильм У друзей жизнь лучше бесплатно
    У друзей жизнь лучше скачать торрент в хорошем качестве
    У друзей жизнь лучше смотреть онлайн бесплатно в хорошем качестве


    Вы не можете начинать темы
    Вы не можете отвечать на сообщения
    Вы не можете редактировать свои сообщения
    Вы не можете удалять свои сообщения
    Вы не можете голосовать в опросах
    Вы не можете прикреплять файлы к сообщениям
    Вы можете скачивать файлы