2 сезон

iTunes

MVO

1

2 сезон

iTunes

iTunes

1 сезон

RePack

30

Новинка

ВАЖНО

ИГРА 18+

pack

RePack

MK11
pack

Легкие деньги

RePack

jed

RePack

fifa19

RePack

RDR2

RePack

NEED FOR SPEED™ PAYBACK

4 сезон

9 сезон

Бесстыжие 9 сезон

Все сериалы

все сериалы на PB.wtf

RePack

FAR CRY 5

Anonymous, добрый день, мы не успеваем собрать деньги на оплату серверов за декабрь и январь, помогите нам пожалуйста в это трудное время. В качестве благодарности мы отключим Вам всю рекламу на сайте (укажите свой ник в строку Ваше имя)!

×
  
Magnet ссылка

Хижина / The Shack (Стюарт Хэзелдайн) [2017, Фэнтези, драма, BDRip-AVC] MVO [iTunes] pb.wtf

Хижина через торрент pb.wtf

Размер: 2.01 GB | Добавлен: 3 года 5 мес. назад | Торрент скачан:502 раза
Скачать  

16-08-2017 09:37 Хижина Скачать торрент  

Хижина / The Shack
Год выпуска: 2017
Страна: США
Жанр: Фэнтези, драма
Продолжительность: 02:12:20
Перевод: Профессиональный многоголосый [iTunes]
Субтитры: английские

Режиссер: Стюарт Хэзелдайн

rating

В ролях:

Сэм Уортингтон, Октавия Спенсер, Тим МакГроу, Рада Митчелл, Меган Чарпентье, Гейдж Манро, Амели Ив, Сумирэ Мацубара, Алиси Брага

Описание:

Мистические события происходят в судьбе главного героя, переживающего трагедию. Он получает личное приглашение встретиться с самим Всевышним в очень уединенном месте...

Качество: BDRip-AVC
Формат: MKV
Видео кодек: H.264
Аудио кодек: AC3

Видео: 1024x428 (16:9), 23,976 fps, x264 ~1531 kbps avg, 0.146 bit/pixel
Аудио#1: 48 kHz, AC3 Dolby Digital, 2 (L,R) ch, ~192.00 kbps avg | RUS (iTunes)
Аудио#2: 48 kHz, AC3 Dolby Digital, 3/2 (L,C,R,l,r) + LFE ch, ~448.00 kbps avg | ENG
скриншот   скриншот   скриншот   скриншот   скриншот  

Общее
Уникальный идентификатор : 213349285913231638858700260634870717302 (0xA08193ED0531FC46A560D2F51E909B76)
Полное имя : D:The.Shack.2016.BDRip(AVC).OlLanDGroup.mkv
Формат : Matroska
Версия формата : Version 2
Размер файла : 2,01 Гбайт
Продолжительность : 2 ч. 12 м.
Общий поток : 2173 Кбит/сек
Название фильма : The.Shack.2016 - TorpedoUK
Дата кодирования : UTC 2017-08-16 07:54:59
Программа кодирования : mkvmerge v7.8.0 ('River Man') 32bit built on Apr 3 2015 12:11:22
Библиотека кодирования : libebml v1.3.1 + libmatroska v1.4.2

Видео
Идентификатор : 1
Формат : AVC
Формат/Информация : Advanced Video Codec
Профиль формата : High@L4.1
Параметр CABAC формата : Да
Параметр ReFrames формата : 10 кадров
Идентификатор кодека : V_MPEG4/ISO/AVC
Продолжительность : 2 ч. 12 м.
Битрейт : 1531 Кбит/сек
Ширина : 1024 пикселя
Высота : 428 пикселей
Соотношение сторон : 2,40:1
Режим частоты кадров : Постоянный
Частота кадров : 23,976 (24000/1001) кадра/сек
Цветовое пространство : YUV
Субдискретизация насыщенности : 4:2:0
Битовая глубина : 8 бит
Тип развёртки : Прогрессивная
Бит/(Пиксели*Кадры) : 0.146
Размер потока : 1,38 Гбайт (69%)
Библиотека кодирования : x264 core 146 r2538 121396c
Настройки программы : cabac=1 / ref=10 / deblock=1:-3:-3 / analyse=0x3:0x133 / me=umh / subme=11 / psy=1 / psy_rd=1.00:0.07 / mixed_ref=1 / me_range=48 / chroma_me=1 / trellis=2 / 8x8dct=1 / cqm=0 / deadzone=21,11 / fast_pskip=0 / chroma_qp_offset=-3 / threads=6 / lookahead_threads=1 / sliced_threads=0 / nr=0 / decimate=0 / interlaced=0 / bluray_compat=0 / constrained_intra=0 / bframes=10 / b_pyramid=2 / b_adapt=2 / b_bias=0 / direct=3 / weightb=1 / open_gop=0 / weightp=2 / keyint=240 / keyint_min=23 / scenecut=40 / intra_refresh=0 / rc_lookahead=40 / rc=2pass / mbtree=0 / bitrate=1531 / ratetol=1.0 / qcomp=0.60 / qpmin=0 / qpmax=69 / qpstep=4 / cplxblur=20.0 / qblur=0.5 / vbv_maxrate=50000 / vbv_bufsize=62500 / nal_hrd=none / filler=0 / ip_ratio=1.40 / pb_ratio=1.30 / aq=1:1.00
Язык : English
Default : Да
Forced : Нет

Аудио #1
Идентификатор : 2
Формат : AC-3
Формат/Информация : Audio Coding 3
Расширение режима : CM (complete main)
Параметр Endianness формата : Big
Идентификатор кодека : A_AC3
Продолжительность : 2 ч. 12 м.
Вид битрейта : Постоянный
Битрейт : 192 Кбит/сек
Каналы : 2 канала
Расположение каналов : Front: L R
Частота : 48,0 КГц
Частота кадров : 31,250 кадров/сек (1536 spf)
Битовая глубина : 16 бит
Метод сжатия : С потерями
Размер потока : 182 Мбайт (9%)
Заголовок : iTunes
Язык : Russian
Default : Да
Forced : Нет

Аудио #2
Идентификатор : 3
Формат : AC-3
Формат/Информация : Audio Coding 3
Расширение режима : CM (complete main)
Параметр Endianness формата : Big
Идентификатор кодека : A_AC3
Продолжительность : 2 ч. 12 м.
Вид битрейта : Постоянный
Битрейт : 448 Кбит/сек
Каналы : 6 каналов
Расположение каналов : Front: L C R, Side: L R, LFE
Частота : 48,0 КГц
Частота кадров : 31,250 кадров/сек (1536 spf)
Битовая глубина : 16 бит
Метод сжатия : С потерями
Размер потока : 424 Мбайт (21%)
Заголовок : Original
Язык : English
Default : Нет
Forced : Нет

Текст
Идентификатор : 4
Формат : UTF-8
Идентификатор кодека : S_TEXT/UTF8
Идентификатор кодека/Информация : UTF-8 Plain Text
Заголовок : SDH
Язык : English
Default : Нет
Forced : Нет

Меню
00:00:00.000 : en:1
00:04:57.880 : en:2
00:10:03.320 : en:3
00:15:57.320 : en:4
00:22:17.960 : en:5
00:27:12.480 : en:6
00:33:33.640 : en:7
00:39:23.720 : en:8
00:45:42.160 : en:9
00:53:20.640 : en:10
01:00:09.840 : en:11
01:08:23.200 : en:12
01:16:39.560 : en:13
01:22:21.480 : en:14
01:29:16.920 : en:15
01:36:40.880 : en:16
01:42:25.560 : en:17
01:47:45.960 : en:18
01:53:24.800 : en:19

pb.wtf



Скачать Хижина через торрент http://s019.radikal.ru/i639/1708/2f/c2d6c94737b2.jpg Скачать фильм Хижина через торрент бесплантно в хорошем качестве Описание: Мистические события происходят в судьбе главного героя, переживающего трагедию. Он получает личное приглашение встретиться с ... 9.1 10 10
Info! Золотая раздача, скачанное не засчитывается.
Торрент: Зарегистрирован [2017-08-16 09:37] · скачан: 502 раз
Статус: √ проверено
Размер: 2.01 GB
Как cкачать? Как скачать Хижина через торрент | UTorrent

% Раздел Тема Автор DL S | L
Фильмы 2017 [DVDrip, WEB-DLRip, HDrip] (DUB, MVO) [ 2.19 GB ] Хижина / The Shack [2017 BDRip] MVO Twi7ter Скачать
1 | 0
Фильмы 2017 [DVDrip, WEB-DLRip, HDrip] (DUB, MVO) [ 1.46 GB ] Хижина / The Shack [2017 BDRip] MVO Twi7ter Скачать
1 | 0
Фильмы без перевода [ 32.09 GB ] Хижина / The Shack [2017 BD Remux] [Оригинал-ENG] smaster Скачать
1 | 0

28-11-2019 20:33  

Отключить всю рекламу на сайте

16-08-2017 17:55 Хижина Скачать торрент  

Сильный фильм, очень душевный!pb.wtf



    Дорогой пользователь! Огромная просьба, поблагодарите релизера, оцените раздачу и оставьте свои комментарий, если Вы скачали Хижина через торрент бесплатно! Внесите свою лепту в развитие PiratBit!
    Комментировать посты могут только пользователи прошедшие не сложную регистрацию
    Показать сообщения:    

    Хижина через торрент
    Скачать бесплатно Хижина
    Хижина скачать торрент
    Хижина смотреть онлайн
    Cкачать фильм Хижина бесплатно
    Хижина скачать торрент в хорошем качестве
    Хижина смотреть онлайн бесплатно в хорошем качестве


    Вы не можете начинать темы
    Вы не можете отвечать на сообщения
    Вы не можете редактировать свои сообщения
    Вы не можете удалять свои сообщения
    Вы не можете голосовать в опросах
    Вы не можете прикреплять файлы к сообщениям
    Вы можете скачивать файлы