Ссылка на приватное зеркало всего за 1$. Внимание количество ограничено!!!

iTunes

iTunes

iTunes

1

iTunes

iTunes

iTunes

iTunes

iTunes

30
pack

$ от Little Big

ВАЖНО

!!Акция!!

Alien_RageХит недели

RePack

Resident Evil 21

ИГРА 18+

pack

RePack

jed

!!Акция!!

Alien_Rage

RePack

fifa19

RePack

Assassins Creed: Odyssey

RePack

NEED FOR SPEED™ PAYBACK

4 сезон

9 сезон

Бесстыжие 9 сезон

Все сериалы

все сериалы на PB.wtf

RePack

FAR CRY 5
  

Спасатели Малибу / Baywatch (Сет Гордон) [2017, боевик, драма, комедия, WEB-DL 720p] [EXTENDED/Расширенная версия] DUB [iTunes] pb.wtf

Спасатели Малибу через торрент pb.wtf

Размер: 4.06 GB | Добавлен: 2 года 10 мес. назад | Торрент скачан:1823 раза
Скачать  

16-08-2017 11:33 Спасатели Малибу Скачать торрент  

Спасатели Малибу / Baywatch
[EXTENDED/Расширенная версия]
Год выпуска: 2017
Страна: США
Жанр: боевик, драма, комедия
Продолжительность: 02:01:34
Перевод: Дубляж iTunes
Субтитры: отсутствуют

Режиссер: Сет Гордон

rating

В ролях:

Дуэйн Джонсон, Зак Эфрон, Приянка Чопра, Александра Даддарио, Келли Рорбах, Ильфенеш Хадера, Джон Басс, Яхья Абдул-Марин II

Описание:

Группа пляжных спасателей работает на побережье Тихого океана. Они всегда находятся на своем посту и охраняют отдыхающих от несчастных случаев на воде. Главный герой, опытный спасатель Митч Бьюкеннон, и его молодой коллега Мэтт Броди случайно узнают, что их пляж находится под угрозой исчезновения. Большая нефтяная компания собирается разрушить побережье, преследуя личные интересы руководства, крепко завязанные на финансах...

Качество: WEB-DL 720p
Формат: MKV
Видео кодек: H.264
Аудио кодек: AC3

Видео: 1280x536 (2.40:1), 23.976 fps, MPEG-4 AVC ~4 016 kbps avg
Аудио#1: 48 kHz, AC3 Dolby Digital, 3/2 (L,C,R,l,r) + LFE ch, ~384 kbps | RUS
Аудио#2: 48 kHz, AC3 Dolby Digital, 3/2 (L,C,R,l,r) + LFE ch, ~384 kbps | ENG

Примечание: EXTENDED - расширенная версия - длиннее театральной на 5 минут! Полный лицензионный дубляж!
скриншот   скриншот   скриншот   скриншот   скриншот  

Полное имя : D:\торреннты\MaLLibUUU.EXTENDED.2O17.D.WEB-DL.72Op.mkv
Формат : Matroska
Версия формата : Version 2
Размер файла : 4,06 Гбайт
Продолжительность : 2 ч. 1 м.
Общий поток : 4785 Кбит/сек
Дата кодирования : UTC 2017-08-15 23:30:39
Программа кодирования : mkvmerge v8.3.0 ('Over the Horizon') 64bit
Библиотека кодирования : libebml v1.3.1 + libmatroska v1.4.2

Видео
Идентификатор : 1
Формат : AVC
Формат/Информация : Advanced Video Codec
Профиль формата : Main@L3.1
Параметр CABAC формата : Нет
Параметр ReFrames формата : 2 кадра
Идентификатор кодека : V_MPEG4/ISO/AVC
Продолжительность : 2 ч. 1 м.
Битрейт : 4016 Кбит/сек
Ширина : 1280 пикселей
Высота : 536 пикселей
Соотношение сторон : 2,40:1
Режим частоты кадров : Постоянный
Частота кадров : 23,976 (24000/1001) кадра/сек
Цветовое пространство : YUV
Субдискретизация насыщенности : 4:2:0
Битовая глубина : 8 бит
Тип развёртки : Прогрессивная
Бит/(Пиксели*Кадры) : 0.244
Размер потока : 3,41 Гбайт (84%)
Язык : English
Default : Да
Forced : Нет
Цветовой диапазон : Limited
Основные цвета : BT.709
Характеристики трансфера : BT.709
Коэффициенты матрицы : BT.709

Аудио #1
Идентификатор : 2
Формат : AC-3
Формат/Информация : Audio Coding 3
Расширение режима : CM (complete main)
Параметр Endianness формата : Big
Идентификатор кодека : A_AC3
Продолжительность : 2 ч. 1 м.
Вид битрейта : Постоянный
Битрейт : 384 Кбит/сек
Каналы : 6 каналов
Расположение каналов : Front: L C R, Side: L R, LFE
Частота : 48,0 КГц
Частота кадров : 31,250 кадров/сек (1536 spf)
Метод сжатия : С потерями
Размер потока : 333 Мбайт (8%)
Язык : Russian
Default : Да
Forced : Нет

Аудио #2
Идентификатор : 3
Формат : AC-3
Формат/Информация : Audio Coding 3
Расширение режима : CM (complete main)
Параметр Endianness формата : Big
Идентификатор кодека : A_AC3
Продолжительность : 2 ч. 1 м.
Вид битрейта : Постоянный
Битрейт : 384 Кбит/сек
Каналы : 6 каналов
Расположение каналов : Front: L C R, Side: L R, LFE
Частота : 48,0 КГц
Частота кадров : 31,250 кадров/сек (1536 spf)
Метод сжатия : С потерями
Размер потока : 333 Мбайт (8%)
Язык : English
Default : Нет
Forced : Нет

Меню
00:00:00.000 : en:1
00:08:54.000 : en:2
00:16:52.000 : en:3
00:20:59.000 : en:4
00:29:38.000 : en:5
00:38:00.000 : en:6
00:44:51.000 : en:7
00:50:29.000 : en:8
01:01:25.000 : en:9
01:11:43.000 : en:10
01:19:38.000 : en:11
01:28:54.000 : en:12
01:35:16.000 : en:13
01:44:24.000 : en:14
01:49:59.000 : en:15
01:54:44.000 : en:16

pb.wtf



Скачать Спасатели Малибу через торрент http://img11.lostpic.net/2017/06/02/dc26ec4daf95ee37127a1be3b0ff50f4.png Скачать фильм Спасатели Малибу через торрент бесплантно в хорошем качестве Описание: Группа пляжных спасателей работает на побережье Тихого океана. Они всегда находятся на своем посту и охраняют отдыхающих от ... 9.5 10 44
Info! Золотая раздача, скачанное не засчитывается.
Торрент: Зарегистрирован [2017-08-16 11:33] · скачан: 1 823 раз
Статус: √ проверено
Размер: 4.06 GB
Как cкачать? Как скачать Спасатели Малибу через торрент | qTorrent

% Раздел Тема Автор DL S | L
Зарубежные сериалы [ 135.56 GB ] Спасатели Малибу / Baywatch / Сезон: 1-9 из 9 / Серии: 1-198 из 198 [1989-1999 WEB-DLRip] [MVO] killermax2013 Скачать
2 | 1
Зарубежные сериалы [ 94.34 GB ] Спасатели Малибу / Baywatch / Сезон: 3 / Серии: 1-22 из 22 [1992-1993 WEB-DL 1080p] [MVO] killermax2013 Скачать
1 | 0
Зарубежные сериалы [ 89.55 GB ] Спасатели Малибу / Baywatch / Сезон: 8 / Серии: 1-22 из 22 [1997-1998 WEB-DL 1080p] MVO [Живи!] bober100 Скачать
1 | 0
Зарубежные сериалы [ 89.58 GB ] Спасатели Малибу / Baywatch / Сезон: 7 / Серии: 1-22 из 22 [1996-1997 WEB-DL 1080p] [MVO] killermax2013 Скачать
1 | 0
Зарубежные сериалы [ 90.39 GB ] Спасатели Малибу / Baywatch / Сезон: 6 / Серии: 1-22 из 22 [1995-1996 WEB-DL 1080p] [MVO] killermax2013 Скачать
1 | 0
Зарубежные сериалы [ 92.62 GB ] Спасатели Малибу / Baywatch / Сезон: 5 / Серии: 1-22 из 22 [1994-1995 WEB-DL 1080p] MVO [Sony Turbo] bober100 Скачать
1 | 0
Зарубежные сериалы [ 93.18 GB ] Спасатели Малибу / Baywatch / Сезон: 4 / Серии: 1-22 из 22 [1993-1994 WEB-DL 1080p] [MVO] killermax2013 Скачать
1 | 0

28-11-2019 20:33  

Отключить всю рекламу на сайте

16-08-2017 22:14 Спасатели Малибу Скачать торрент  

Спасибо!)pb.wtf



17-08-2017 04:42 Спасатели Малибу Скачать торрент  

AIRAT6 писал(а):

Спасибо!)

Не за что))) pb.wtf



17-08-2017 05:36 Спасатели Малибу Скачать торрент  

Такс посмотрим на это чудо
Тема сисек раскрыта!?pb.wtf



22-09-2017 16:46 Спасатели Малибу Скачать торрент  

mastre писал(а):

Такс посмотрим на это чудо
Тема сисек раскрыта!?

только слегка)pb.wtf



22-09-2017 16:51 Спасатели Малибу Скачать торрент  

а фильм очень даже ничего такой, дажо про Хассельхоффа и Андерсон не забыли)pb.wtf



23-09-2017 13:07 Спасатели Малибу Скачать торрент  

VTPRV писал(а):

а фильм очень даже ничего такой, дажо про Хассельхоффа и Андерсон не забыли)

Согласен. Мне тоже понравился. Простой, хороший фильмец. Я думал хуже будет.pb.wtf



    Дорогой пользователь! Огромная просьба, поблагодарите релизера, оцените раздачу и оставьте свои комментарий, если Вы скачали Спасатели Малибу через торрент бесплатно! Внесите свою лепту в развитие PiratBit!
    Комментировать посты могут только пользователи прошедшие не сложную регистрацию
    Показать сообщения:    

    Спасатели Малибу через торрент
    Скачать бесплатно Спасатели Малибу
    Спасатели Малибу скачать торрент
    Спасатели Малибу смотреть онлайн
    Cкачать фильм Спасатели Малибу бесплатно
    Спасатели Малибу скачать торрент в хорошем качестве
    Спасатели Малибу смотреть онлайн бесплатно в хорошем качестве


    Вы не можете начинать темы
    Вы не можете отвечать на сообщения
    Вы не можете редактировать свои сообщения
    Вы не можете удалять свои сообщения
    Вы не можете голосовать в опросах
    Вы не можете прикреплять файлы к сообщениям
    Вы можете скачивать файлы