2 сезон

iTunes

MVO

1

2 сезон

iTunes

iTunes

1 сезон

RePack

30

Новинка

ВАЖНО

ИГРА 18+

pack

RePack

MK11
pack

Легкие деньги

RePack

jed

RePack

fifa19

RePack

RDR2

RePack

NEED FOR SPEED™ PAYBACK

4 сезон

9 сезон

Бесстыжие 9 сезон

Все сериалы

все сериалы на PB.wtf

RePack

FAR CRY 5

Anonymous, добрый день, мы не успеваем собрать деньги на оплату серверов за декабрь и январь, помогите нам пожалуйста в это трудное время. В качестве благодарности мы отключим Вам всю рекламу на сайте (укажите свой ник в строку Ваше имя)!

×
  
Magnet ссылка

Меч короля Артура / King Arthur: Legend of the Sword (Гай Ричи) [2017, Фэнтези, боевик, драма, приключения, BDRip-AVC] DUB [Лицензия] pb.wtf

Меч короля Артура через торрент pb.wtf

Размер: 1.46 GB | Добавлен: 3 года 5 мес. назад | Торрент скачан:456 раз
Скачать  

16-08-2017 14:59 Меч короля Артура Скачать торрент  

Меч короля Артура / King Arthur: Legend of the Sword
Год выпуска: 2017
Страна: США
Жанр: Фэнтези, боевик, драма, приключения
Продолжительность: 01:37:14
Перевод: Дубляж Лицензия
Субтитры: Русские, английские

Режиссер: Гай Ричи

rating

В ролях:

Чарли Ханнэм, Астрид Берже-Фрисби, Джуд Лоу, Джимон Хонсу, Эрик Бана, Эйден Гиллен, Фредди Фокс, Крэйг МакГинли, Том Ву, Кингсли Бен-Адир

Описание:

Молодой Артур живёт на задворках Лондиниума вместе со своей бандой. Он и понятия не имел о своём королевском происхождении, пока однажды не взял в руки меч Эскалибур. Меч начинает менять Артура. В результате он присоединяется к сопротивлению и таинственной молодой девушке по имени Гвиневра. Ему предстоит научиться понимать магическое оружие, которым он овладел, столкнуться со своими собственными демонами и объединить народ в борьбе против диктатора Вортигерна, убившего его родителей и завладевшего короной.

Качество: BDRip-AVC
Формат: MKV
Видео кодек: H.264
Аудио кодек: AC3

Видео: 720x300 (2.40:1), 23.976 fps, x264 ~1206 kbps avg, 0.233 bit/pixel
Аудио: 48 kHz, AC3 Dolby Digital, 3/2 (L,C,R,l,r) + LFE ch, ~448.00 kbps avg | RUS (Лицензия)
скриншот   скриншот   скриншот   скриншот   скриншот  

Общее
Уникальный идентификатор : 203118426903270569729791456757992870248 (0x98CF2FA1D2DEB9DCBE62CDAE86A35168)
Полное имя : D:King.Arthur.Legend.Of.The.Sword.2017.BDRip(AVC).OlLanDGroup.mkv
Формат : Matroska
Версия формата : Version 2
Размер файла : 1,46 Гбайт
Продолжительность : 2 ч. 6 м.
Общий поток : 1654 Кбит/сек
Название фильма : King.Arthur.Legend.Of.The.Sword.2017 #TorpedoUK#
Дата кодирования : UTC 2017-08-16 14:24:04
Программа кодирования : mkvmerge v7.8.0 ('River Man') 32bit built on Apr 3 2015 12:11:22
Библиотека кодирования : libebml v1.3.1 + libmatroska v1.4.2

Видео
Идентификатор : 1
Формат : AVC
Формат/Информация : Advanced Video Codec
Профиль формата : High@L4.1
Параметр CABAC формата : Да
Параметр ReFrames формата : 10 кадров
Идентификатор кодека : V_MPEG4/ISO/AVC
Продолжительность : 2 ч. 6 м.
Битрейт : 1206 Кбит/сек
Ширина : 720 пикселей
Высота : 300 пикселей
Соотношение сторон : 2,40:1
Режим частоты кадров : Постоянный
Частота кадров : 23,976 (24000/1001) кадра/сек
Цветовое пространство : YUV
Субдискретизация насыщенности : 4:2:0
Битовая глубина : 8 бит
Тип развёртки : Прогрессивная
Бит/(Пиксели*Кадры) : 0.233
Размер потока : 1,03 Гбайт (71%)
Библиотека кодирования : x264 core 146 r2538 121396c
Настройки программы : cabac=1 / ref=10 / deblock=1:-3:-3 / analyse=0x3:0x133 / me=umh / subme=11 / psy=1 / psy_rd=1.00:0.07 / mixed_ref=1 / me_range=48 / chroma_me=1 / trellis=2 / 8x8dct=1 / cqm=0 / deadzone=21,11 / fast_pskip=0 / chroma_qp_offset=-3 / threads=6 / lookahead_threads=1 / sliced_threads=0 / nr=0 / decimate=0 / interlaced=0 / bluray_compat=0 / constrained_intra=0 / bframes=10 / b_pyramid=2 / b_adapt=2 / b_bias=0 / direct=3 / weightb=1 / open_gop=0 / weightp=2 / keyint=240 / keyint_min=23 / scenecut=40 / intra_refresh=0 / rc_lookahead=40 / rc=2pass / mbtree=0 / bitrate=1206 / ratetol=1.0 / qcomp=0.60 / qpmin=0 / qpmax=69 / qpstep=4 / cplxblur=20.0 / qblur=0.5 / vbv_maxrate=50000 / vbv_bufsize=62500 / nal_hrd=none / filler=0 / ip_ratio=1.40 / pb_ratio=1.30 / aq=1:1.00
Default : Да
Forced : Нет

Аудио
Идентификатор : 2
Формат : AC-3
Формат/Информация : Audio Coding 3
Расширение режима : CM (complete main)
Параметр Endianness формата : Big
Идентификатор кодека : A_AC3
Продолжительность : 2 ч. 6 м.
Вид битрейта : Постоянный
Битрейт : 448 Кбит/сек
Каналы : 6 каналов
Расположение каналов : Front: L C R, Side: L R, LFE
Частота : 48,0 КГц
Частота кадров : 31,250 кадров/сек (1536 spf)
Битовая глубина : 16 бит
Метод сжатия : С потерями
Размер потока : 404 Мбайт (27%)
Заголовок : License
Язык : Russian
Default : Да
Forced : Нет

Текст #1
Идентификатор : 3
Формат : UTF-8
Идентификатор кодека : S_TEXT/UTF8
Идентификатор кодека/Информация : UTF-8 Plain Text
Заголовок : Forced
Язык : Russian
Default : Да
Forced : Нет

Текст #2
Идентификатор : 4
Формат : UTF-8
Идентификатор кодека : S_TEXT/UTF8
Идентификатор кодека/Информация : UTF-8 Plain Text
Заголовок : Full
Язык : Russian
Default : Нет
Forced : Нет

Текст #3
Идентификатор : 5
Формат : UTF-8
Идентификатор кодека : S_TEXT/UTF8
Идентификатор кодека/Информация : UTF-8 Plain Text
Заголовок : Full
Язык : English
Default : Нет
Forced : Нет

Текст #4
Идентификатор : 6
Формат : UTF-8
Идентификатор кодека : S_TEXT/UTF8
Идентификатор кодека/Информация : UTF-8 Plain Text
Заголовок : SDH
Язык : English
Default : Нет
Forced : Нет

Меню
00:00:00.000 : en:00:00:00.000
00:12:43.221 : en:00:12:43.221
00:21:05.347 : en:00:21:05.347
00:32:32.659 : en:00:32:32.659
00:43:09.378 : en:00:43:09.378
00:56:47.988 : en:00:56:47.988
01:06:48.546 : en:01:06:48.546
01:14:13.032 : en:01:14:13.032
01:23:44.394 : en:01:23:44.394
01:36:36.791 : en:01:36:36.791
01:46:57.244 : en:01:46:57.244
01:58:58.798 : en:01:58:58.798

pb.wtf



Скачать Меч короля Артура через торрент http://lostpix.com/img/2017-07/26/sok6uf2dr741b8x7gbatdi83g.jpg Скачать фильм Меч короля Артура через торрент бесплантно в хорошем качестве Описание: Молодой Артур живёт на задворках Лондиниума вместе со своей бандой. Он и понятия не имел о своём королевском происхождении, пока ... 10 10 6
Торрент: Зарегистрирован [2017-08-16 14:59] · скачан: 456 раз
Статус: √ проверено
Размер: 1.46 GB
Как cкачать? Как скачать Меч короля Артура через торрент | UTorrent

% Раздел Тема Автор DL S | L
Ultra HD (UHD: 2K, 4K, 8K) — видео сверхвысокой чёткости [ 68.28 GB ] Меч короля Артура / King Arthur: Legend of the Sword [2017 UHD Blu-Ray EUR 2160p] [] sheker187 Скачать
2 | 0
Фильмы с авторской озвучкой [ 2.07 GB ] Меч короля Артура / Король Артур - легенда о великом мече / King Arthur: Legend of the Sword [2017 BDRip] AVO killermax2013 Скачать
1 | 0
Фильмы [HD 720p, 1080p] (Хороший звук DUB, MVO) [ 10.08 GB ] Меч короля Артура / King Arthur: Legend of the Sword [2017 BDRip 1080р] 2xDUB [] bober100 Скачать
1 | 0
Ultra HD (UHD: 2K, 4K, 8K) — видео сверхвысокой чёткости [ 52.81 GB ] Меч короля Артура / King Arthur: Legend of the Sword [2017 UHD BDRemux 2160p] DUB + AVO [] sheker187 Скачать
1 | 0
Фильмы (Blu-ray, BD-Remux, HDDVD) [ 29.56 GB ] Меч короля Артура / King Arthur: Legend of the Sword [2017 BD Remux 1080p] DUB+AVO [] bober100 Скачать
1 | 0
Фильмы 2017 [DVDrip, WEB-DLRip, HDrip] (DUB, MVO) [ 1.46 GB ] Меч короля Артура / King Arthur: Legend of the Sword [2017 BDRip] - [] Twi7ter Скачать
5 | 0
3D Фильмы [ 28.02 GB ] Меч короля Артура в 3Д / King Arthur: Legend of the Sword 3D [2017 BDrip 1080p] OverUnder / Вертикальная стереопара serega768 Скачать
1 | 0

28-11-2019 20:33  

Отключить всю рекламу на сайте

04-12-2017 16:08 Меч короля Артура Скачать торрент  

отличный исторический фильм с красавчиком в главной роли. может, местами сценаристы-фантасты и перегнули палку, но в итоге 10.pb.wtf



    Дорогой пользователь! Огромная просьба, поблагодарите релизера, оцените раздачу и оставьте свои комментарий, если Вы скачали Меч короля Артура через торрент бесплатно! Внесите свою лепту в развитие PiratBit!
    Комментировать посты могут только пользователи прошедшие не сложную регистрацию
    Показать сообщения:    

    Меч короля Артура через торрент
    Скачать бесплатно Меч короля Артура
    Меч короля Артура скачать торрент
    Меч короля Артура смотреть онлайн
    Cкачать фильм Меч короля Артура бесплатно
    Меч короля Артура скачать торрент в хорошем качестве
    Меч короля Артура смотреть онлайн бесплатно в хорошем качестве


    Вы не можете начинать темы
    Вы не можете отвечать на сообщения
    Вы не можете редактировать свои сообщения
    Вы не можете удалять свои сообщения
    Вы не можете голосовать в опросах
    Вы не можете прикреплять файлы к сообщениям
    Вы можете скачивать файлы