новый адрес
Мега распродажа FORZA HORIZON 4 ULTIMATE+ВСЕ DLC+ОНЛАЙН всего за 499р. 349 руб. (супер цена). Внимание количество ограничено!!!

iTunes

1+1

iTunes

мы

iTunes

1

iTunes

Чернобыль

iTunes

Ральф против интернета

Лицензия

ПШазам

Лицензия

Игра престолов

Лицензия

30
pack

ВАЖНО

!!Акция!!

Alien_RageХит недели

RePack

Resident Evil 21

ИГРА 18+

pack

RePack

Metro:Exodus

!!Акция!!

Alien_Rage

RePack

fifa19

RePack

Assassins Creed: Odyssey

RePack

NEED FOR SPEED™ PAYBACK

3 сезон

9 сезон

Бесстыжие 9 сезон

Все сериалы

все сериалы на PB.wtf

RePack

FAR CRY 5
Ребята, катастрофически не хватает 1900р. для оплаты серверов за Октябрь (всвязи с блокировками трафик упал в 3 раза), 1-2р., выручайте.
  

Фатима (Семён Долидзе) [1958, СССР, драма, мелодрама, приключения, DVDRip от AVP Studio] pb.wtf

Фатима через торрент pb.wtf

Размер: 1.09 GB | Добавлен: 2 года 3 мес. назад | Торрент скачан:22 раза
Скачать  

17-08-2017 08:41 Фатима Скачать торрент  

Фатима
Страна: СССР
Производство: Грузия-фильм

Жанр: драма, мелодрама, приключения
Год выпуска: 1958
Продолжительность: 01:36:01

Перевод: Не требуется
Cубтитры: нет
Оригинальная аудиодорожка: русский

Режиссер: Семён Долидзе

В ролях:
Тамара Кокова, Владимир Тхапсаев, Отар Мегвинетухуцеси, Гиули Чохонелидзе, Меги Цулукидзе, Иван Русинов, Акакий Васадзе, Дмитрий Мамиев, Давид Сохадзе, Екатерина (Цаца) Амиреджиби, Эсма Цховребова...
Об актёрах подробней

Описание:
По одноименному произведению осетинского писателя Коста Хетагурова.
Осетинскому князю подкидывают грудную девочку. В память об умершей дочери князь удочеряет малютку. Проходят годы. Красавица Фатима (Тамара Кокова) и сын князя Джамбулат (Отар Мегвинетухуцеси) любят друг друга. Влюбляется в Фатиму и батрак князя Ибрагим (Гиули Чохонелидзе), но наблюдая за счастливой парой, скрывает свои чувства. Начинается русско-турецкая война и Джамбулат первый по жеребьевке на пять лет покидает родные края и любимую. Проходят пять, десять лет. Годы скорби не приближают встречу возлюбленных. По закону гор Фатиму вынуждают выйти замуж. На этом настаивает и князь. Девушка отвергает княжеских женихов и выбирает старого друга - холопа Ибрагима, работающего теперь у русского инженера. Ибрагим сумел создать счастливую семью. Первенца назвали Джамбулатом. Фатима не чает души в муже и детях. Проходит пять лет в радости и покое. Неожиданно возвращается скитавшийся по свету после плена Джамбулат, по-прежнему любящий Фатиму, - и требует, чтобы она была с ним... Фатима отказывается. Во время поединка Джамбулат вероломно убивает Ибрагима. Фатима сходит с ума...

Источник: DVD5 R5
Качество видео: DVDRip
Формат видео: AVI

Видео: 688x512 (4:3), 25 fps, XviD ~ 1424 kbps avg, 0.162 bit/pixel
Аудио: 48 kHz, Dolby Digital AC3 2.0, 192 kbps

Раздача от:
Общее
Полное имя : Fatima.1958.DVDRip_[New-team]_by_AVP_Studio.avi
Формат : AVI
Формат/Информация : Audio Video Interleave
Размер файла : 1,09 Гбайт
Продолжительность : 1 ч. 36 м.
Общий поток : 1626 Кбит/сек
Программа кодирования : VirtualDubMod 1.5.10.3 | www.virtualdub-fr.org || (build 2550/release)
Библиотека кодирования : VirtualDubMod build 2550/release

Видео
Идентификатор : 0
Формат : MPEG-4 Visual
Профиль формата : Advanced Simple@L5
Параметр BVOP формата : 1
Параметр QPel формата : Нет
Параметр GMC формата : Без точки перехода
Параметр матрицы формата : Выборочная
Идентификатор кодека : XVID
Идентификатор кодека/Подсказка : XviD
Продолжительность : 1 ч. 36 м.
Битрейт : 1424 Кбит/сек
Ширина : 688 пикселей
Высота : 512 пикселей
Соотношение сторон : 4:3
Частота кадров : 25,000 кадров/сек
Цветовое пространство : YUV
Субдискретизация насыщенности : 4:2:0
Битовая глубина : 8 бит
Тип развёртки : Прогрессивная
Метод сжатия : С потерями
Бит/(Пиксели*Кадры) : 0.162
Размер потока : 978 Мбайт (88%)
Библиотека кодирования : XviD 73

Аудио
Идентификатор : 1
Формат : AC-3
Формат/Информация : Audio Coding 3
Параметр Endianness формата : Big
Идентификатор кодека : 2000
Продолжительность : 1 ч. 36 м.
Вид битрейта : Постоянный
Битрейт : 192 Кбит/сек
Каналы : 2 канала
Расположение каналов : Front: L R
Частота : 48,0 КГц
Частота кадров : 31,250 кадров/сек (1536 SPF)
Битовая глубина : 16 бит
Метод сжатия : С потерями
Размер потока : 132 Мбайт (12%)
Выравнивание : Разделение по промежуткам
Продолжительность промежутка : 40 мс. (1,00 видеокадр)
Время предзагрузки промежутка : 500 мс
pb.wtf



Скачать Фатима через торрент http://s018.radikal.ru/i503/1708/9c/14bc327a3c5d.png Скачать фильм Фатима через торрент бесплантно в хорошем качестве Описание:По одноименному произведению осетинского писателя Коста Хетагурова.Осетинскому князю подкидывают грудную девочку. В память об ... 5 10 1
Info! Золотая раздача, скачанное не засчитывается.
Торрент: Зарегистрирован [2017-08-17 08:41] · скачан: 22 раз
Статус: √ проверено
Размер: 1.09 GB
Как cкачать? Как скачать Фатима через торрент | qTorrent

% Раздел Тема Автор DL S | L
Кино СССР [ 1.09 GB ] Фатима [1958 СССР DVDRip-AVC от AVP Studio] AVP Studio Скачать
1 | 0
Кино СССР [ 746 MB ] Фатима [1958 СССР DVDRip от AVP Studio] AVP Studio Скачать
1 | 0
Отечественная Поп музыка (mp3) [ 51 MB ] Фатима - Любовь и огонь 2016 / MP3 / 320 kbps / Pop\Dance viktor6343 Скачать
1 | 0
Анальный секс [ 54 MB ] Секс с арабской девушкой Фатимой. [Beurettes-Rebelles.com] [2005 Oral Classic Anal Fisting. DVDRip] Pir@tya2010 Скачать
1 | 0


>> Регистрируемся здесь <<






Отзывы и комментарии о схеме читаем и пишем здесь: ---> Отзывы и комментарии о схеме

Новые благодарочки в телеграм довольных пользователей:
скриншот   скриншот   скриншот   скриншот   скриншот
    Дорогой пользователь! Огромная просьба, поблагодарите релизера, оцените раздачу и оставьте свои комментарий, если Вы скачали Фатима через торрент бесплатно! Внесите свою лепту в развитие PiratBit!
    Комментировать посты могут только пользователи прошедшие не сложную регистрацию
    Показать сообщения:    

    Фатима через торрент
    Скачать бесплатно Фатима
    Фатима скачать торрент
    Фатима смотреть онлайн
    Cкачать фильм Фатима бесплатно
    Фатима скачать торрент в хорошем качестве
    Фатима смотреть онлайн бесплатно в хорошем качестве


    Вы не можете начинать темы
    Вы не можете отвечать на сообщения
    Вы не можете редактировать свои сообщения
    Вы не можете удалять свои сообщения
    Вы не можете голосовать в опросах
    Вы не можете прикреплять файлы к сообщениям
    Вы можете скачивать файлы