новый адрес пиратбит piratbit
MEGA NEWS Получи личный уникальный адрес сайта и защити себя от блокировок. Внимание количество ограничено!!!

iTunes

1+1

iTunes

мы

iTunes

1

iTunes

Чернобыль

iTunes

Ральф против интернета

Лицензия

ПШазам

Лицензия

Игра престолов

Лицензия

30
pack

ВАЖНО

!!Акция!!

Alien_RageХит недели

RePack

Resident Evil 21

ИГРА 18+

pack

RePack

Metro:Exodus

!!Акция!!

Alien_Rage

RePack

fifa19

RePack

Assassins Creed: Odyssey

RePack

NEED FOR SPEED™ PAYBACK

3 сезон

9 сезон

Бесстыжие 9 сезон

Все сериалы

все сериалы на PB.wtf

RePack

FAR CRY 5
Ребята, катастрофически не хватает 1900р. для оплаты серверов за АВГУСТ (всвязи с блокировками трафик упал в 3 раза), 1-2р., выручайте.
  

Я стеснительный, но я лечусь / Je suis timide... mais je me soigne (Пьер Ришар) [1978 г., Комедия, DVDRip-AVC, Профессиональный (двухголосый)] от ExKinoRay pb.wtf

Я стеснительный, но я лечусь через торрент pb.wtf

Размер: 2.08 GB | Добавлен: 2 года 2 мес. назад | Торрент скачан:14 раз
Скачать  

18-08-2017 07:34 Я стеснительный, но я лечусь Скачать торрент  

Я стеснительный но я лечусь / Je suis timide... mais je me soigne
Год выпуска: 1978
Страна: Франция
Жанр: Комедия
Продолжительность: 01:27:02
Перевод: Профессиональный (двухголосый)

Режиссер: Пьер Ришар

Премьера в мире: 23 августа 1978

rating

В ролях: Пьер Ришар, Жак Франсуа, Альдо Маччоне, Катрин Лашанс, Робер Дальбан, Жак Фаббри, Робер Кастель, Рауль Дельфосс

Описание: Кассир Пьер Рено (Пьер Ришар) - милый человек. Но слишком застенчивый. Вот, например: Пьер влюбился. Но он не может открыться своей избраннице. И поэтому страдает, ходит вокруг да около, краснеет, бледнеет. В общем, Пьер принимает решение лечиться от своей застенчивости. А добрым доктором становится итальянец - авантюрист Альдо. Вместе они отправляются на Лазурный берег навстречу мечте.

Качество: DVDRip-AVC
Формат: MKV
Видео кодек: MPEG4
Аудио кодек: AC3
Видео: MPEG-4 AVC, 3000 Кбит/с, 656x572@932x572, 25 кадров/сек
Аудио#1: Русский (AC3, 2 ch, 192 Кбит/с, 48 КГц)
Аудио#2: Французский (AC3, 2 ch, 224 Кбит/с, 48 КГц)
Релиз от:




raw [info]: 656x572p 64:45 @ 25/1 fps (cfr)
x264 [info]: using SAR=64/45
x264 [info]: using cpu capabilities: MMX2 SSE2Fast LZCNT
x264 [info]: profile High, level 4.1
x264 [info]: frame I:824 Avg QP:17.81 size: 61034
x264 [info]: frame P:26225 Avg QP:20.01 size: 29975
x264 [info]: frame B:103502 Avg QP:22.11 size: 10839
x264 [info]: consecutive B-frames: 1.1% 1.8% 7.1% 14.0% 9.8% 62.7% 1.8% 0.6% 0.4% 0.1% 0.1% 0.1% 0.1% 0.2% 0.1% 0.0% 0.0%
-----
Общее
Уникальный идентификатор : 187246776864491995897562126137979424618 (0x8CDE6ADE5A46947280DB59FD1D7DCF6A)
Полное имя : D:\Relizes\Je.suis.timide.1978.DVDRip-AVC.ExKinoRay.mkv
Формат : Matroska
Версия формата : Version 2
Размер файла : 2,08 Гбайт
Продолжительность : 1 ч. 27 м.
Общий поток : 3418 Кбит/сек
Дата кодирования : UTC 2017-08-18 05:10:57
Программа кодирования : mkvmerge v7.8.0 ('River Man') 32bit built on Apr 3 2015 12:11:22
Библиотека кодирования : libebml v1.3.1 + libmatroska v1.4.2

Видео
Идентификатор : 1
Формат : AVC
Формат/Информация : Advanced Video Codec
Профиль формата : High@L4.1
Параметр CABAC формата : Да
Параметр ReFrames формата : 14 кадров
Идентификатор кодека : V_MPEG4/ISO/AVC
Продолжительность : 1 ч. 27 м.
Битрейт : 3000 Кбит/сек
Ширина : 656 пикселей
Высота : 572 пикселя
Соотношение сторон : 16:10
Соотношение сторон в оригинале : 16:10
Режим частоты кадров : Постоянный
Частота кадров : 25,000 кадров/сек
Цветовое пространство : YUV
Субдискретизация насыщенности : 4:2:0
Битовая глубина : 8 бит
Тип развёртки : Прогрессивная
Бит/(Пиксели*Кадры) : 0.320
Размер потока : 1,78 Гбайт (86%)
Библиотека кодирования : x264 core 148 r2638 7599210
Настройки программы : cabac=1 / ref=14 / deblock=1:-2:-2 / analyse=0x3:0x133 / me=umh / subme=10 / psy=1 / psy_rd=1.05:0.15 / mixed_ref=1 / me_range=32 / chroma_me=1 / trellis=2 / 8x8dct=1 / cqm=0 / deadzone=21,11 / fast_pskip=0 / chroma_qp_offset=-3 / threads=4 / lookahead_threads=1 / sliced_threads=0 / nr=0 / decimate=0 / interlaced=0 / bluray_compat=0 / constrained_intra=0 / bframes=16 / b_pyramid=2 / b_adapt=2 / b_bias=0 / direct=3 / weightb=1 / open_gop=0 / weightp=2 / keyint=250 / keyint_min=25 / scenecut=40 / intra_refresh=0 / rc=2pass / mbtree=0 / bitrate=3000 / ratetol=1.0 / qcomp=0.60 / qpmin=0 / qpmax=69 / qpstep=4 / cplxblur=20.0 / qblur=0.5 / ip_ratio=1.40 / pb_ratio=1.30 / aq=1:1.00
Язык : English
Default : Да
Forced : Нет
Цветовой диапазон : Limited
Основные цвета : BT.601 NTSC
Характеристики трансфера : BT.601
Коэффициенты матрицы : BT.601

Аудио #1
Идентификатор : 2
Формат : AC-3
Формат/Информация : Audio Coding 3
Расширение режима : CM (complete main)
Параметр Endianness формата : Big
Идентификатор кодека : A_AC3
Продолжительность : 1 ч. 27 м.
Вид битрейта : Постоянный
Битрейт : 192 Кбит/сек
Каналы : 2 канала
Расположение каналов : Front: L R
Частота : 48,0 КГц
Частота кадров : 31,250 кадров/сек (1536 spf)
Метод сжатия : С потерями
Размер потока : 120 Мбайт (6%)
Язык : Russian
Default : Да
Forced : Нет

Аудио #2
Идентификатор : 3
Формат : AC-3
Формат/Информация : Audio Coding 3
Расширение режима : CM (complete main)
Параметр Endianness формата : Big
Идентификатор кодека : A_AC3
Продолжительность : 1 ч. 27 м.
Вид битрейта : Постоянный
Битрейт : 224 Кбит/сек
Каналы : 2 канала
Расположение каналов : Front: L R
Частота : 48,0 КГц
Частота кадров : 31,250 кадров/сек (1536 spf)
Метод сжатия : С потерями
Размер потока : 139 Мбайт (7%)
Язык : French
Default : Нет
Forced : Нет

pb.wtf



Скачать Я стеснительный, но я лечусь через торрент http://s018.radikal.ru/i528/1708/68/5d2639bf4fe7.jpg Скачать фильм Я стеснительный, но я лечусь через торрент бесплантно в хорошем качестве Описание: Кассир Пьер Рено (Пьер Ришар) - милый человек. Но слишком застенчивый. Вот, например: Пьер влюбился. Но он не может открыться ... 10 10 2
Info! Золотая раздача, скачанное не засчитывается.
Торрент: Зарегистрирован [2017-08-18 07:34] · скачан: 14 раз
Статус: √ проверено
Размер: 2.08 GB
Как cкачать? Как скачать Я стеснительный, но я лечусь через торрент | qTorrent


>> Регистрируемся здесь <<






Отзывы и комментарии о схеме читаем и пишем здесь: ---> Отзывы и комментарии о схеме

Новые благодарочки в телеграм довольных пользователей:
скриншот   скриншот   скриншот   скриншот   скриншот

18-08-2017 12:27 Я стеснительный, но я лечусь Скачать торрент  

Топик был перенесен из форума Оформление раздач (Кино, Видео и ТВ) в форум Классика зарубежного кино


-Lexx-pb.wtf



    Дорогой пользователь! Огромная просьба, поблагодарите релизера, оцените раздачу и оставьте свои комментарий, если Вы скачали Я стеснительный, но я лечусь через торрент бесплатно! Внесите свою лепту в развитие PiratBit!
    Комментировать посты могут только пользователи прошедшие не сложную регистрацию
    Показать сообщения:    

    Я стеснительный, но я лечусь через торрент
    Скачать бесплатно Я стеснительный, но я лечусь
    Я стеснительный, но я лечусь скачать торрент
    Я стеснительный, но я лечусь смотреть онлайн
    Cкачать фильм Я стеснительный, но я лечусь бесплатно
    Я стеснительный, но я лечусь скачать торрент в хорошем качестве
    Я стеснительный, но я лечусь смотреть онлайн бесплатно в хорошем качестве


    Вы не можете начинать темы
    Вы не можете отвечать на сообщения
    Вы не можете редактировать свои сообщения
    Вы не можете удалять свои сообщения
    Вы не можете голосовать в опросах
    Вы не можете прикреплять файлы к сообщениям
    Вы можете скачивать файлы