Ссылка на приватное зеркало нашего сайта всего за 1$. Внимание количество ограничено!!!

2 сезон

iTunes

1 сезон

1

iTunes

iTunes

iTunes

1 сезон

RePack

30

ИГРА 18+

pack

ВАЖНО

!!Акция!!

Alien_RageХит недели

RePack

MK11
pack

Забери бонус

RePack

jed

!!Акция!!

Alien_Rage

RePack

fifa19

RePack

Assassins Creed: Odyssey

RePack

NEED FOR SPEED™ PAYBACK

4 сезон

9 сезон

Бесстыжие 9 сезон

Все сериалы

все сериалы на PB.wtf

RePack

FAR CRY 5
  

Нити судьбы / Сезон: 1 / Серии 1-40 из 40 (Владислав Николаев, Андрей Загидуллин) [2017 , Россия, Украина, Мелодрама, SATRip] pb.wtf

Нити судьбы через торрент pb.wtf

Размер: 23.14 GB | Добавлен: 3 года 2 мес. назад | Торрент скачан:173 раза
Скачать  

18-08-2017 07:54 Нити судьбы Скачать торрент  

Нити судьбы


  • Год выпуска: 2016
  • Страна: Россия, Украина, Компания "FILM.UA"
  • Жанр: Мелодрама
  • Продолжительность: ~00:47:00 (Серия)
  • Перевод: Не требуется [Русский]
  • Режиссер: Александр Тименко, Мария Ткачёва, Ева Стрельникова
  • В ролях:
    Мила Сивацкая, Евгения Розанова, Денис Васильев, Анна Адамович, Олег Гаас, Валерий Афанасьев, Ольга Сумская, Кирилл Жандаров, Дмитрий Суржиков, Олеся Жураковская, Виктор Сарайкин, Нина Касторф, Фёдор Гуринец, Оксана Жданова, Полина Носыхина, Ольга Морозова


  • История о двух сёстрах, которые после смерти родителей оказались в разных семьях. Катя выросла в доме родного деда в богатстве и благополучии, в то время как её младшая сестра Ольга – в крайней бедности и лишениях. Оля попала под колёса машины и потеряла память. А водитель, чтобы скрыть преступление, взял девочку в свою семью на правах «приживалки» и дал ей новое имя. Однако спустя много лет жизнь снова сводит родных сестёр вместе, но уже как соперниц, влюблённых в одного и того же мужчину. Узнают ли Катя и Оля друг друга? И кого из них по-настоящему любит Вадим? Коварные интриги и семейные тайны, любовь и ненависть, жажда мести и прощение, борьба за жизнь... Какие ещё испытания подготовила для них судьба?
  • Рейтинг:



  • Качество: SATRip
  • Формат: :AVI
  • Видео кодек: XviD
  • Аудио кодек: AC3
  • Видео: 1770 Кбит/сек, 720*400 (16:9), в 25,000 кадров/сек, MPEG-4 Visual (XviD)
  • Аудио: 192 Кбит/сек, 48,0 КГц, 16 бит, 2 канала, AC-3
  • Релиз от:


    Общее
    Полное имя : F:\Загрузки\Niti.sudby.2016.SATRip.Files-x\40.Niti.sudby.2016.SATRip.Files-x.avi
    Формат : AVI
    Формат/Информация : Audio Video Interleave
    Размер файла : 600 Мбайт
    Продолжительность : 42 м. 32 с.
    Общий поток : 1971 Кбит/сек
    Программа кодирования : VirtualDubMod 1.5.10.3 | www.virtualdub-fr.org || (build 2550/release)
    Библиотека кодирования : VirtualDubMod build 2550/release

    Видео
    Идентификатор : 0
    Формат : MPEG-4 Visual
    Профиль формата : Advanced Simple@L5
    Параметр BVOP формата : 1
    Параметр QPel формата : Нет
    Параметр GMC формата : Без точки перехода
    Параметр матрицы формата : Выборочная
    Идентификатор кодека : XVID
    Идентификатор кодека/Подсказка : XviD
    Продолжительность : 42 м. 32 с.
    Битрейт : 1770 Кбит/сек
    Ширина : 720 пикселей
    Высота : 400 пикселей
    Соотношение сторон : 16:9
    Частота кадров : 25,000 кадров/сек
    Цветовое пространство : YUV
    Субдискретизация насыщенности : 4:2:0
    Битовая глубина : 8 бит
    Тип развёртки : Прогрессивная
    Метод сжатия : С потерями
    Бит/(Пиксели*Кадры) : 0.246
    Размер потока : 539 Мбайт (90%)
    Библиотека кодирования : XviD 73

    Аудио
    Идентификатор : 1
    Формат : AC-3
    Формат/Информация : Audio Coding 3
    Параметр Endianness формата : Big
    Идентификатор кодека : 2000
    Продолжительность : 42 м. 32 с.
    Вид битрейта : Постоянный
    Битрейт : 192 Кбит/сек
    Каналы : 2 канала
    Расположение каналов : Front: L R
    Частота : 48,0 КГц
    Частота кадров : 31,250 кадров/сек (1536 SPF)
    Битовая глубина : 16 бит
    Метод сжатия : С потерями
    Размер потока : 58,4 Мбайт (10%)
    Выравнивание : Разделение по промежуткам
    Продолжительность промежутка : 40 мс. (1,00 видеокадр)
    Время предзагрузки промежутка : 500 мс.
    ServiceKind/String : Complete Main

    Скриншоты:
    скриншот   скриншот   скриншот   скриншот   скриншот   скриншот   скриншот  
    скриншот  

    pb.wtf



  • Скачать Нити судьбы через торрент http://pic1.kartinco.top/images/11/kvdq9.jpg Скачать фильм Нити судьбы через торрент бесплантно в хорошем качестве qw.png История о двух сёстрах, которые после смерти родителей оказались в разных семьях. Катя выросла в доме родного деда в богатстве и ... 9.4 10 7
    Info! Золотая раздача, скачанное не засчитывается.
    Торрент: Зарегистрирован [2017-08-18 07:54] · скачан: 173 раз
    Статус: √ проверено
    Размер: 23.14 GB
    Как cкачать? Как скачать Нити судьбы через торрент | qTorrent

    28-11-2019 20:33  

    Отключить всю рекламу на сайте

      Дорогой пользователь! Огромная просьба, поблагодарите релизера, оцените раздачу и оставьте свои комментарий, если Вы скачали Нити судьбы через торрент бесплатно! Внесите свою лепту в развитие PiratBit!
      Комментировать посты могут только пользователи прошедшие не сложную регистрацию
      Показать сообщения:    

      Нити судьбы через торрент
      Скачать бесплатно Нити судьбы
      Нити судьбы скачать торрент
      Нити судьбы смотреть онлайн
      Cкачать фильм Нити судьбы бесплатно
      Нити судьбы скачать торрент в хорошем качестве
      Нити судьбы смотреть онлайн бесплатно в хорошем качестве


      Вы не можете начинать темы
      Вы не можете отвечать на сообщения
      Вы не можете редактировать свои сообщения
      Вы не можете удалять свои сообщения
      Вы не можете голосовать в опросах
      Вы не можете прикреплять файлы к сообщениям
      Вы можете скачивать файлы