новый адрес пиратбит piratbit
Мега распродажа FORZA HORIZON 4 ULTIMATE+ВСЕ DLC+ОНЛАЙН всего за 499р. 349 руб. (супер цена). Внимание количество ограничено!!!

iTunes

1+1

iTunes

мы

iTunes

1

iTunes

Чернобыль

iTunes

Ральф против интернета

Лицензия

ПШазам

Лицензия

Игра престолов

Лицензия

30
pack

ВАЖНО

!!Акция!!

Alien_RageХит недели

RePack

Resident Evil 21

ИГРА 18+

pack

RePack

Metro:Exodus

!!Акция!!

Alien_Rage

RePack

fifa19

RePack

Assassins Creed: Odyssey

RePack

NEED FOR SPEED™ PAYBACK

3 сезон

9 сезон

Бесстыжие 9 сезон

Все сериалы

все сериалы на PB.wtf

RePack

FAR CRY 5
Ребята, катастрофически не хватает 1900р. для оплаты серверов за Октябрь (всвязи с блокировками трафик упал в 3 раза), 1-2р., выручайте.
  

Хождение за три моря (Василий Пронин, Ходжа Ахмад Аббас) [1957, СССР, Индия, приключения, история, биография, DVDRip от AVP Studio] pb.wtf

Хождение за три моря через торрент pb.wtf

Размер: 1.46 GB | Добавлен: 2 года 2 мес. назад | Торрент скачан:38 раз
Скачать  

18-08-2017 08:53 Хождение за три моря Скачать торрент  

Хождение за три моря
Страна: СССР
Производство: Мосфильм, Naya Sansar

Жанр: приключения, история, биография
Год выпуска: 1958
Продолжительность: 02:25:23 (01:33:26 + 00:51:57)

Перевод: Не требуется
Cубтитры: нет
Оригинальная аудиодорожка: русский

Режиссер: Василий Пронин, Ходжа Ахмад Аббас

В ролях:
Олег Стриженов, Наргис, Балрадж Сахни, Притхвирадж Капур, Падмини, Дэвид Абрахам, Пи Джайрадж, Манмохан Кришна, Ачала Сачдэв, Варвара Обухова, Виталий Беляков, Степан Каюков, Иван Жеваго, Владислав Баландин, Всеволод Тягушев, Никифор Колофидин, Леонид Топчиев, Всеволод Якут, Борис Терентьев, Ия Арепина...
Об актёрах подробней

Описание:
Фильм, снятый по путевым заметкам русского путешественника и первооткрывателя Афанасия Никитина. Его сочинение "Хождение за три моря", рассказывающее о государственном строе, хозяйстве, религии, быте и природе Индии, стало не только точным источником сведений об этой стране, но и памятником русской литературы. Эта книга была переведена на многие языки.
События развиваются в XV веке. Тверской купец Афанасий Никитин (Олег Стриженов) отправляется в опасное морское путешествие в Индию. В результате ему удается проложить торговый путь из Европы в эту далекую и загадочную страну.

Источник: DVD9 R5
Качество видео: DVDRip
Формат видео: AVI

Видео: 704x304 (2,35:1), 25 fps, XviD ~ 998 kbps avg, 0.187 bit/pixel
Аудио: 48 kHz, Dolby Digital AC3 5.1, 448 kbps

Раздача от:
Общее
Полное имя : Hozhdenie.za.tri.morna.1958.DVDRip_[New-team]_by_AVP_Studio.avi
Формат : AVI
Формат/Информация : Audio Video Interleave
Размер файла : 952 Мбайт
Продолжительность : 1 ч. 31 м.
Общий поток : 1456 Кбит/сек
Программа кодирования : VirtualDubMod 1.5.10.3 | www.virtualdub-fr.org || (build 2550/release)
Библиотека кодирования : VirtualDubMod build 2550/release

Видео
Идентификатор : 0
Формат : MPEG-4 Visual
Профиль формата : Advanced Simple@L5
Параметр BVOP формата : 1
Параметр QPel формата : Нет
Параметр GMC формата : Без точки перехода
Параметр матрицы формата : Выборочная
Идентификатор кодека : XVID
Идентификатор кодека/Подсказка : XviD
Продолжительность : 1 ч. 31 м.
Битрейт : 998 Кбит/сек
Ширина : 704 пикселя
Высота : 304 пикселя
Соотношение сторон : 2,35:1
Частота кадров : 25,000 кадров/сек
Цветовое пространство : YUV
Субдискретизация насыщенности : 4:2:0
Битовая глубина : 8 бит
Тип развёртки : Прогрессивная
Метод сжатия : С потерями
Бит/(Пиксели*Кадры) : 0.187
Размер потока : 653 Мбайт (69%)
Библиотека кодирования : XviD 73

Аудио
Идентификатор : 1
Формат : AC-3
Формат/Информация : Audio Coding 3
Параметр Endianness формата : Big
Идентификатор кодека : 2000
Продолжительность : 1 ч. 31 м.
Вид битрейта : Постоянный
Битрейт : 448 Кбит/сек
Каналы : 6 каналов
Расположение каналов : Front: L C R, Side: L R, LFE
Частота : 48,0 КГц
Частота кадров : 31,250 кадров/сек (1536 SPF)
Битовая глубина : 16 бит
Метод сжатия : С потерями
Размер потока : 293 Мбайт (31%)
Выравнивание : Разделение по промежуткам
Продолжительность промежутка : 40 мс. (1,00 видеокадр)
Время предзагрузки промежутка : 500 мс
pb.wtf



Скачать Хождение за три моря через торрент http://s011.radikal.ru/i316/1708/3d/4882fc6daa89.png Скачать фильм Хождение за три моря через торрент бесплантно в хорошем качестве Описание:Фильм, снятый по путевым заметкам русского путешественника и первооткрывателя Афанасия Никитина. Его сочинение "Хождение за три ... 10 10 1
Info! Золотая раздача, скачанное не засчитывается.
Торрент: Зарегистрирован [2017-08-18 08:53] · скачан: 38 раз
Статус: √ проверено
Размер: 1.46 GB
Как cкачать? Как скачать Хождение за три моря через торрент | qTorrent

% Раздел Тема Автор DL S | L
Кино СССР [ 2.18 GB ] Хождение за три моря [1957 СССР Индия история биография DVDRip-AVC от AVP Studio] AVP Studio Скачать
1 | 0


>> Регистрируемся здесь <<






Отзывы и комментарии о схеме читаем и пишем здесь: ---> Отзывы и комментарии о схеме

Новые благодарочки в телеграм довольных пользователей:
скриншот   скриншот   скриншот   скриншот   скриншот
    Дорогой пользователь! Огромная просьба, поблагодарите релизера, оцените раздачу и оставьте свои комментарий, если Вы скачали Хождение за три моря через торрент бесплатно! Внесите свою лепту в развитие PiratBit!
    Комментировать посты могут только пользователи прошедшие не сложную регистрацию
    Показать сообщения:    

    Хождение за три моря через торрент
    Скачать бесплатно Хождение за три моря
    Хождение за три моря скачать торрент
    Хождение за три моря смотреть онлайн
    Cкачать фильм Хождение за три моря бесплатно
    Хождение за три моря скачать торрент в хорошем качестве
    Хождение за три моря смотреть онлайн бесплатно в хорошем качестве


    Вы не можете начинать темы
    Вы не можете отвечать на сообщения
    Вы не можете редактировать свои сообщения
    Вы не можете удалять свои сообщения
    Вы не можете голосовать в опросах
    Вы не можете прикреплять файлы к сообщениям
    Вы можете скачивать файлы