новый адрес
Ссылка на приватное зеркало всего за 1$. Внимание количество ограничено!!!

iTunes

1+1

iTunes

мы

WEB-DL

1

iTunes

Чернобыль

iTunes

Ральф против интернета

Лицензия

ПШазам

Лицензия

Оно 2

Лицензия

30
pack

Вам бонус

ВАЖНО

!!Акция!!

Alien_RageХит недели

RePack

Resident Evil 21

ИГРА 18+

pack

RePack

jed

!!Акция!!

Alien_Rage

RePack

fifa19

RePack

Assassins Creed: Odyssey

RePack

NEED FOR SPEED™ PAYBACK

3 сезон

9 сезон

Бесстыжие 9 сезон

Все сериалы

все сериалы на PB.wtf

RePack

FAR CRY 5
Ребята, катастрофически не хватает 1900р. для оплаты серверов за Октябрь (всвязи с блокировками трафик упал в 3 раза), 1-2р., выручайте.
  

Хождение за три моря (Василий Пронин, Ходжа Ахмад Аббас) [1957, СССР, Индия, приключения, история, биография, DVDRip-AVC от AVP Studio] pb.wtf

Хождение за три моря через торрент pb.wtf

Размер: 2.18 GB | Добавлен: 2 года 3 мес. назад | Торрент скачан:33 раза
Скачать  

18-08-2017 08:54 Хождение за три моря Скачать торрент  

Хождение за три моря
Страна: СССР
Производство: Мосфильм, Naya Sansar

Жанр: приключения, история, биография
Год выпуска: 1958
Продолжительность: 02:25:23 (01:33:26 + 00:51:57)

Перевод: Не требуется
Cубтитры: нет
Оригинальная аудиодорожка: русский

Режиссер: Василий Пронин, Ходжа Ахмад Аббас

В ролях:
Олег Стриженов, Наргис, Балрадж Сахни, Притхвирадж Капур, Падмини, Дэвид Абрахам, Пи Джайрадж, Манмохан Кришна, Ачала Сачдэв, Варвара Обухова, Виталий Беляков, Степан Каюков, Иван Жеваго, Владислав Баландин, Всеволод Тягушев, Никифор Колофидин, Леонид Топчиев, Всеволод Якут, Борис Терентьев, Ия Арепина...
Об актёрах подробней

Описание:
Фильм, снятый по путевым заметкам русского путешественника и первооткрывателя Афанасия Никитина. Его сочинение "Хождение за три моря", рассказывающее о государственном строе, хозяйстве, религии, быте и природе Индии, стало не только точным источником сведений об этой стране, но и памятником русской литературы. Эта книга была переведена на многие языки.
События развиваются в XV веке. Тверской купец Афанасий Никитин (Олег Стриженов) отправляется в опасное морское путешествие в Индию. В результате ему удается проложить торговый путь из Европы в эту далекую и загадочную страну.

Источник: DVD9 R5
Качество видео: DVDRip-AVC
Формат видео: MKV

Видео: 712->1024x436 (2,35:1), 25 fps, H264 ~ 1725 kbps avg, 0.222 bit/pixel
Аудио: 48 kHz, Dolby Digital AC3 5.1, 448 kbps

Раздача от:
Общее
Полное имя : Hozhdenie.za.tri.morna.1958.DVDRip-AVC_[New-team]_by_AVP_Studio.mkv
Формат : Matroska
Версия формата : Version 2
Размер файла : 1,39 Гбайт
Продолжительность : 1 ч. 31 м.
Общий поток : 2175 Кбит/сек
Дата кодирования : UTC 2017-08-17 15:38:43
Программа кодирования : mkvmerge v6.1.0 ('Old Devil') built on Mar 4 2013 09:10:42
Библиотека кодирования : libebml v1.3.0 + libmatroska v1.4.0

Видео
Идентификатор : 1
Формат : AVC
Формат/Информация : Advanced Video Codec
Профиль формата : High@L4.1
Параметр CABAC формата : Да
Параметр RefFrames формата : 10 кадров
Идентификатор кодека : V_MPEG4/ISO/AVC
Продолжительность : 1 ч. 31 м.
Битрейт : 1725 Кбит/сек
Ширина : 712 пикселей
Высота : 436 пикселей
Соотношение сторон : 2,35:1
Режим частоты кадров : Постоянный
Частота кадров : 25,000 кадров/сек
Цветовое пространство : YUV
Субдискретизация насыщенности : 4:2:0
Битовая глубина : 8 бит
Тип развёртки : Прогрессивная
Бит/(Пиксели*Кадры) : 0.222
Размер потока : 1,08 Гбайт (77%)
Библиотека кодирования : x264 core 130 r2273 b3065e6
Настройки программы : cabac=1 / ref=10 / deblock=1:-2:-1 / analyse=0x3:0x113 / me=umh / subme=10 / psy=1 / psy_rd=1.00:0.00 / mixed_ref=1 / me_range=32 / chroma_me=1 / trellis=2 / 8x8dct=1 / cqm=0 / deadzone=21,11 / fast_pskip=1 / chroma_qp_offset=-2 / threads=6 / lookahead_threads=1 / sliced_threads=0 / nr=0 / decimate=0 / interlaced=0 / bluray_compat=0 / constrained_intra=0 / bframes=8 / b_pyramid=2 / b_adapt=2 / b_bias=0 / direct=3 / weightb=1 / open_gop=0 / weightp=2 / keyint=250 / keyint_min=25 / scenecut=40 / intra_refresh=0 / rc=2pass / mbtree=0 / bitrate=1725 / ratetol=1.0 / qcomp=0.60 / qpmin=0 / qpmax=69 / qpstep=4 / cplxblur=20.0 / qblur=0.5 / ip_ratio=1.40 / pb_ratio=1.30 / aq=1:1.00
Default : Да
Forced : Нет

Аудио
Идентификатор : 2
Формат : AC-3
Формат/Информация : Audio Coding 3
Параметр Endianness формата : Big
Идентификатор кодека : A_AC3
Продолжительность : 1 ч. 31 м.
Вид битрейта : Постоянный
Битрейт : 448 Кбит/сек
Каналы : 6 каналов
Расположение каналов : Front: L C R, Side: L R, LFE
Частота : 48,0 КГц
Частота кадров : 31,250 кадров/сек (1536 SPF)
Битовая глубина : 16 бит
Метод сжатия : С потерями
Размер потока : 293 Мбайт (21%)
Default : Да
Forced : Нет
pb.wtf



Скачать Хождение за три моря через торрент http://s011.radikal.ru/i316/1708/3d/4882fc6daa89.png Скачать фильм Хождение за три моря через торрент бесплантно в хорошем качестве Описание:Фильм, снятый по путевым заметкам русского путешественника и первооткрывателя Афанасия Никитина. Его сочинение "Хождение за три ... 10 10 1
Info! Золотая раздача, скачанное не засчитывается.
Торрент: Зарегистрирован [2017-08-18 08:54] · скачан: 33 раз
Статус: √ проверено
Размер: 2.18 GB
Как cкачать? Как скачать Хождение за три моря через торрент | qTorrent

% Раздел Тема Автор DL S | L
Кино СССР [ 1.46 GB ] Хождение за три моря [1957 СССР Индия история биография DVDRip от AVP Studio] AVP Studio Скачать
1 | 0

28-11-2019 20:33  

Отключить всю рекламу на сайте

    Дорогой пользователь! Огромная просьба, поблагодарите релизера, оцените раздачу и оставьте свои комментарий, если Вы скачали Хождение за три моря через торрент бесплатно! Внесите свою лепту в развитие PiratBit!
    Комментировать посты могут только пользователи прошедшие не сложную регистрацию
    Показать сообщения:    

    Хождение за три моря через торрент
    Скачать бесплатно Хождение за три моря
    Хождение за три моря скачать торрент
    Хождение за три моря смотреть онлайн
    Cкачать фильм Хождение за три моря бесплатно
    Хождение за три моря скачать торрент в хорошем качестве
    Хождение за три моря смотреть онлайн бесплатно в хорошем качестве


    Вы не можете начинать темы
    Вы не можете отвечать на сообщения
    Вы не можете редактировать свои сообщения
    Вы не можете удалять свои сообщения
    Вы не можете голосовать в опросах
    Вы не можете прикреплять файлы к сообщениям
    Вы можете скачивать файлы