2 сезон

iTunes

MVO

1

2 сезон

iTunes

iTunes

1 сезон

RePack

30

Новинка

ВАЖНО

ИГРА 18+

pack

RePack

MK11
pack

Легкие деньги

RePack

jed

RePack

fifa19

RePack

RDR2

RePack

NEED FOR SPEED™ PAYBACK

4 сезон

9 сезон

Бесстыжие 9 сезон

Все сериалы

все сериалы на PB.wtf

RePack

FAR CRY 5

Anonymous, добрый день, мы не успеваем собрать деньги на оплату серверов за декабрь и январь, помогите нам пожалуйста в это трудное время. В качестве благодарности мы отключим Вам всю рекламу на сайте (укажите свой ник в строку Ваше имя)!

×
  
Magnet ссылка

Спасатели Малибу / Baywatch (Сет Гордон) [2017, Комедия, боевик, драма, BDRip-AVC] [EXTENDED/Расширенная версия] DUB [iTunes] pb.wtf

Спасатели Малибу через торрент pb.wtf

Размер: 1.41 GB | Добавлен: 3 года 5 мес. назад | Торрент скачан:1142 раза
Скачать  

19-08-2017 07:29 Спасатели Малибу Скачать торрент  

Спасатели Малибу / Baywatch
[EXTENDED/Расширенная версия]
Год выпуска: 2017
Страна: США
Жанр: Комедия, боевик, драма
Продолжительность: 02:01:23
Перевод: Дубляж iTunes
Субтитры: Русские, английские

Режиссер: Сет Гордон

rating

В ролях:

Дуэйн Джонсон, Зак Эфрон, Приянка Чопра, Александра Даддарио, Келли Рорбах, Ильфенеш Хадера, Джон Басс, Яхья Абдул-Марин II, Хэннибал Бёресс, Роб Хюбель

Описание:

Группа пляжных спасателей работает на побережье Тихого океана. Они всегда находятся на своем посту и охраняют отдыхающих от несчастных случаев на воде. Главный герой, опытный спасатель Митч Бьюкеннон, и его молодой коллега Мэтт Броди случайно узнают, что их пляж находится под угрозой исчезновения. Большая нефтяная компания собирается разрушить побережье, преследуя личные интересы руководства, крепко завязанные на финансах.

Качество: BDRip-AVC
Формат: MKV
Видео кодек: H.264
Аудио кодек: AC3

Видео: 720x302 (16:9), 23,976 fps, x264 ~1272 kbps avg, 0.244 bit/pixel
Аудио: 48 kHz, AC3 Dolby Digital, 3/2 (L,C,R,l,r) + LFE ch, ~384.00 kbps avg | RUS (iTunes)
скриншот   скриншот   скриншот   скриншот   скриншот  

Общее
Уникальный идентификатор : 185043047195483634038312178864041426192 (0x8B35FE9B729EF65185BECDB545AAFD10)
Полное имя : D:Baywatch.2017.Unrated.BDRip(AVC).OlLanDGroup.mkv
Формат : Matroska
Версия формата : Version 2
Размер файла : 1,41 Гбайт
Продолжительность : 2 ч. 1 м.
Общий поток : 1657 Кбит/сек
Название фильма : Baywatch.2017.Unrated #TorpedoUK#
Дата кодирования : UTC 2017-08-18 13:14:50
Программа кодирования : mkvmerge v7.8.0 ('River Man') 32bit built on Apr 3 2015 12:11:22
Библиотека кодирования : libebml v1.3.1 + libmatroska v1.4.2

Видео
Идентификатор : 1
Формат : AVC
Формат/Информация : Advanced Video Codec
Профиль формата : High@L4.1
Параметр CABAC формата : Да
Параметр ReFrames формата : 10 кадров
Идентификатор кодека : V_MPEG4/ISO/AVC
Продолжительность : 2 ч. 1 м.
Битрейт : 1272 Кбит/сек
Ширина : 720 пикселей
Высота : 302 пикселя
Соотношение сторон : 2,40:1
Режим частоты кадров : Постоянный
Частота кадров : 23,976 (24000/1001) кадра/сек
Цветовое пространство : YUV
Субдискретизация насыщенности : 4:2:0
Битовая глубина : 8 бит
Тип развёртки : Прогрессивная
Бит/(Пиксели*Кадры) : 0.244
Размер потока : 1,05 Гбайт (75%)
Библиотека кодирования : x264 core 146 r2538 121396c
Настройки программы : cabac=1 / ref=10 / deblock=1:-3:-3 / analyse=0x3:0x133 / me=umh / subme=11 / psy=1 / psy_rd=1.00:0.07 / mixed_ref=1 / me_range=48 / chroma_me=1 / trellis=2 / 8x8dct=1 / cqm=0 / deadzone=21,11 / fast_pskip=0 / chroma_qp_offset=-3 / threads=6 / lookahead_threads=1 / sliced_threads=0 / nr=0 / decimate=0 / interlaced=0 / bluray_compat=0 / constrained_intra=0 / bframes=10 / b_pyramid=2 / b_adapt=2 / b_bias=0 / direct=3 / weightb=1 / open_gop=0 / weightp=2 / keyint=240 / keyint_min=23 / scenecut=40 / intra_refresh=0 / rc_lookahead=40 / rc=2pass / mbtree=0 / bitrate=1272 / ratetol=1.0 / qcomp=0.60 / qpmin=0 / qpmax=69 / qpstep=4 / cplxblur=20.0 / qblur=0.5 / vbv_maxrate=50000 / vbv_bufsize=62500 / nal_hrd=none / filler=0 / ip_ratio=1.40 / pb_ratio=1.30 / aq=1:1.00
Default : Да
Forced : Нет

Аудио
Идентификатор : 2
Формат : AC-3
Формат/Информация : Audio Coding 3
Расширение режима : CM (complete main)
Параметр Endianness формата : Big
Идентификатор кодека : A_AC3
Продолжительность : 2 ч. 1 м.
Вид битрейта : Постоянный
Битрейт : 384 Кбит/сек
Каналы : 6 каналов
Расположение каналов : Front: L C R, Side: L R, LFE
Частота : 48,0 КГц
Частота кадров : 31,250 кадров/сек (1536 spf)
Битовая глубина : 16 бит
Метод сжатия : С потерями
Размер потока : 333 Мбайт (23%)
Заголовок : iTunes
Язык : Russian
Default : Да
Forced : Нет

Текст #1
Идентификатор : 3
Формат : UTF-8
Идентификатор кодека : S_TEXT/UTF8
Идентификатор кодека/Информация : UTF-8 Plain Text
Заголовок : Forced
Язык : Russian
Default : Да
Forced : Нет

Текст #2
Идентификатор : 4
Формат : UTF-8
Идентификатор кодека : S_TEXT/UTF8
Идентификатор кодека/Информация : UTF-8 Plain Text
Заголовок : Full
Язык : Russian
Default : Нет
Forced : Нет

Текст #3
Идентификатор : 5
Формат : UTF-8
Идентификатор кодека : S_TEXT/UTF8
Идентификатор кодека/Информация : UTF-8 Plain Text
Заголовок : Forced
Язык : English
Default : Нет
Forced : Нет

Текст #4
Идентификатор : 6
Формат : UTF-8
Идентификатор кодека : S_TEXT/UTF8
Идентификатор кодека/Информация : UTF-8 Plain Text
Язык : English
Default : Нет
Forced : Нет

Меню
00:00:00.000 : en:1
00:08:54.000 : en:2
00:16:52.000 : en:3
00:20:59.000 : en:4
00:29:38.000 : en:5
00:38:00.000 : en:6
00:44:51.000 : en:7
00:50:29.000 : en:8
01:01:25.000 : en:9
01:11:43.000 : en:10
01:19:38.000 : en:11
01:28:54.000 : en:12
01:35:16.000 : en:13
01:44:24.000 : en:14
01:49:59.000 : en:15
01:54:44.000 : en:16

pb.wtf



Скачать Спасатели Малибу через торрент http://lostpix.com/img/2017-08/18/5wg1i7hs7ue07fs8k8mn3yhnl.jpg Скачать фильм Спасатели Малибу через торрент бесплантно в хорошем качестве Описание: Группа пляжных спасателей работает на побережье Тихого океана. Они всегда находятся на своем посту и охраняют отдыхающих от ... 9.4 10 26
Info! Золотая раздача, скачанное не засчитывается.
Торрент: Зарегистрирован [2017-08-19 07:29] · скачан: 1 142 раз
Статус: √ проверено
Размер: 1.41 GB
Как cкачать? Как скачать Спасатели Малибу через торрент | UTorrent

% Раздел Тема Автор DL S | L
Зарубежные сериалы [ 135.56 GB ] Спасатели Малибу / Baywatch / Сезон: 1-9 из 9 / Серии: 1-198 из 198 [1989-1999 WEB-DLRip] [MVO] killermax2013 Скачать
1 | 0
Зарубежные сериалы [ 94.34 GB ] Спасатели Малибу / Baywatch / Сезон: 3 / Серии: 1-22 из 22 [1992-1993 WEB-DL 1080p] [MVO] killermax2013 Скачать
1 | 0
Зарубежные сериалы [ 89.55 GB ] Спасатели Малибу / Baywatch / Сезон: 8 / Серии: 1-22 из 22 [1997-1998 WEB-DL 1080p] MVO [Живи!] bober100 Скачать
1 | 0
Зарубежные сериалы [ 89.58 GB ] Спасатели Малибу / Baywatch / Сезон: 7 / Серии: 1-22 из 22 [1996-1997 WEB-DL 1080p] [MVO] killermax2013 Скачать
1 | 0
Зарубежные сериалы [ 90.39 GB ] Спасатели Малибу / Baywatch / Сезон: 6 / Серии: 1-22 из 22 [1995-1996 WEB-DL 1080p] [MVO] killermax2013 Скачать
1 | 0
Зарубежные сериалы [ 92.62 GB ] Спасатели Малибу / Baywatch / Сезон: 5 / Серии: 1-22 из 22 [1994-1995 WEB-DL 1080p] MVO [Sony Turbo] bober100 Скачать
1 | 0
Зарубежные сериалы [ 93.18 GB ] Спасатели Малибу / Baywatch / Сезон: 4 / Серии: 1-22 из 22 [1993-1994 WEB-DL 1080p] [MVO] killermax2013 Скачать
1 | 0

28-11-2019 20:33  

Отключить всю рекламу на сайте

19-08-2017 11:51 Спасатели Малибу Скачать торрент  

одноразовый фильм. за релиз спасибоpb.wtf



    Дорогой пользователь! Огромная просьба, поблагодарите релизера, оцените раздачу и оставьте свои комментарий, если Вы скачали Спасатели Малибу через торрент бесплатно! Внесите свою лепту в развитие PiratBit!
    Комментировать посты могут только пользователи прошедшие не сложную регистрацию
    Показать сообщения:    

    Спасатели Малибу через торрент
    Скачать бесплатно Спасатели Малибу
    Спасатели Малибу скачать торрент
    Спасатели Малибу смотреть онлайн
    Cкачать фильм Спасатели Малибу бесплатно
    Спасатели Малибу скачать торрент в хорошем качестве
    Спасатели Малибу смотреть онлайн бесплатно в хорошем качестве


    Вы не можете начинать темы
    Вы не можете отвечать на сообщения
    Вы не можете редактировать свои сообщения
    Вы не можете удалять свои сообщения
    Вы не можете голосовать в опросах
    Вы не можете прикреплять файлы к сообщениям
    Вы можете скачивать файлы