новый адрес
Ссылка на приватное зеркало всего за 1$. Внимание количество ограничено!!!

iTunes

1+1

iTunes

мы

WEB-DL

1

iTunes

Чернобыль

iTunes

Ральф против интернета

Лицензия

ПШазам

Лицензия

Оно 2

Лицензия

30
pack

Вам бонус

ВАЖНО

!!Акция!!

Alien_RageХит недели

RePack

Resident Evil 21

ИГРА 18+

pack

RePack

jed

!!Акция!!

Alien_Rage

RePack

fifa19

RePack

Assassins Creed: Odyssey

RePack

NEED FOR SPEED™ PAYBACK

3 сезон

9 сезон

Бесстыжие 9 сезон

Все сериалы

все сериалы на PB.wtf

RePack

FAR CRY 5
Ребята, катастрофически не хватает 1900р. для оплаты серверов за Октябрь (всвязи с блокировками трафик упал в 3 раза), 1-2р., выручайте.
  

Кинг Конг / King Kong (Мериан К. Купер, Эрнест Б. Шодсак) [1933, ужасы, фэнтези, приключения, BDRip 1080p by msltel] DVO pb.wtf

Кинг Конг через торрент pb.wtf

Размер: 10.06 GB | Добавлен: 2 года 3 мес. назад | Торрент скачан:1 раз
Скачать  

19-08-2017 09:00 Кинг Конг Скачать торрент  

Название: Кинг Конг
Оригинальное название: King Kong
Год выпуска: 1933
Страна: США
Жанр: ужасы, фэнтези, приключения
Продолжительность: 01:44:25
Перевод: профессиональный двухголосый

Режиссер: Мериан К. Купер, Эрнест Б. Шодсак
В ролях: Фэй Рэй, Роберт Армстронг, Брюс Кэбот, Фрэнк Рейхер, Сэм Харди, Ноубл Джонсон, Стив Клементе, Джеймс Флавин, Кинг Конг

О фильме: На отдалённом диком острове научная экспедиция захватывает громадную человекообразную обезьяну и, не мудрствуя лукаво, привозит её в Нью-Йорк для показа праздной публике. Кто бы мог подумать, что этот жуткий монстр способен на такое тонкое чувство, как любовь. Эта чертова обезьяна жить не может без миниатюрной и нежной главной героини...



Качество: BDRip 1080p
Формат: MKV
Видео: MPEG-4 AVC, 12.8 Mбит/с, 1480x1080, 23.976 кадр/с
Аудио 1: русский, AC3, 192 kbps, 1 ch [профессиональный двухголосый, Twister]
Аудио 2: английский, DTS, 768 kbps, 1 ch, 48 kHz [оригинал]
Субтитры 1: русские
Субтитры 2: английские
Имеются неименованные главы/чаптеры.
Общее
Уникальный идентификатор : 241014073288111651589100846149574555528 (0xB5519F4066A880378C9E38853B4F7788)
Полное имя : D:\Video\Кинг Конг.1933.BDRip.1080p by msltel.mkv
Формат : Matroska
Версия формата : Version 4 / Version 2
Размер файла : 10,1 Гбайт
Продолжительность : 1 ч. 44 м.
Общий поток : 13,8 Мбит/сек
Название фильма : Rip by msltel
Дата кодирования : UTC 2017-08-18 06:26:13
Программа кодирования : mkvmerge v8.2.0 ('World of Adventure') 64bit
Библиотека кодирования : libebml v1.3.1 + libmatroska v1.4.2

Видео
Идентификатор : 1
Формат : AVC
Формат/Информация : Advanced Video Codec
Профиль формата : High@L4.1
Параметр CABAC формата : Да
Параметр RefFrames формата : 4 кадра
Идентификатор кодека : V_MPEG4/ISO/AVC
Продолжительность : 1 ч. 44 м.
Битрейт : 12,8 Мбит/сек
Ширина : 1480 пикселей
Высота : 1080 пикселей
Соотношение сторон : 1,370
Режим частоты кадров : Постоянный
Частота кадров : 23,976 (24000/1001) кадра/сек
Цветовое пространство : YUV
Субдискретизация насыщенности : 4:2:0
Битовая глубина : 8 бит
Тип развёртки : Прогрессивная
Бит/(Пиксели*Кадры) : 0.335
Размер потока : 9,35 Гбайт (93%)
Библиотека кодирования : x264 core 146 r2538 121396c
Настройки программы : cabac=1 / ref=4 / deblock=1:-3:-2 / analyse=0x3:0x113 / me=umh / subme=11 / psy=1 / psy_rd=1.00:0.15 / mixed_ref=1 / me_range=32 / chroma_me=1 / trellis=2 / 8x8dct=1 / cqm=0 / deadzone=21,11 / fast_pskip=0 / chroma_qp_offset=-3 / threads=6 / lookahead_threads=1 / sliced_threads=0 / nr=0 / decimate=1 / interlaced=0 / bluray_compat=0 / constrained_intra=0 / bframes=13 / b_pyramid=2 / b_adapt=2 / b_bias=0 / direct=1 / weightb=1 / open_gop=0 / weightp=2 / keyint=230 / keyint_min=23 / scenecut=40 / intra_refresh=0 / rc_lookahead=40 / rc=crf / mbtree=0 / crf=20.7 / qcomp=0.60 / qpmin=0 / qpmax=69 / qpstep=4 / vbv_maxrate=62500 / vbv_bufsize=78125 / crf_max=0.0 / nal_hrd=none / filler=0 / ip_ratio=1.40 / pb_ratio=1.30 / aq=1:1.00
Язык : English
Default : Да
Forced : Нет

Аудио #1
Идентификатор : 2
Формат : AC-3
Формат/Информация : Audio Coding 3
Параметр Endianness формата : Big
Идентификатор кодека : A_AC3
Продолжительность : 1 ч. 44 м.
Вид битрейта : Постоянный
Битрейт : 192 Кбит/сек
Каналы : 1 канал
Расположение каналов : Front: C
Частота : 48,0 КГц
Частота кадров : 31,250 кадров/сек (1536 SPF)
Битовая глубина : 16 бит
Метод сжатия : С потерями
Размер потока : 143 Мбайт (1%)
Заголовок : DVO (Twister)
Язык : Russian
ServiceKind/String : Complete Main
Default : Да
Forced : Нет

Аудио #2
Идентификатор : 3
Формат : DTS
Формат/Информация : Digital Theater Systems
Режим : 16
Параметр Endianness формата : Big
Идентификатор кодека : A_DTS
Продолжительность : 1 ч. 44 м.
Вид битрейта : Постоянный
Битрейт : 768 Кбит/сек
Каналы : 1 канал
Расположение каналов : Front: C
Частота : 48,0 КГц
Частота кадров : 93,750 кадра/сек (512 SPF)
Битовая глубина : 24 бит
Метод сжатия : С потерями
Размер потока : 574 Мбайт (6%)
Заголовок : original
Язык : English
Default : Нет
Forced : Нет

Текст #1
Идентификатор : 4
Формат : UTF-8
Идентификатор кодека : S_TEXT/UTF8
Идентификатор кодека/Информация : UTF-8 Plain Text
Продолжительность : 1 ч. 37 м.
Битрейт : 72 бит/сек
ElementCount : 767
Размер потока : 51,6 Кбайт (0%)
Заголовок : русские
Язык : Russian
Default : Нет
Forced : Нет

Текст #2
Идентификатор : 5
Формат : UTF-8
Идентификатор кодека : S_TEXT/UTF8
Идентификатор кодека/Информация : UTF-8 Plain Text
Продолжительность : 1 ч. 37 м.
Битрейт : 43 бит/сек
ElementCount : 767
Размер потока : 30,9 Кбайт (0%)
Заголовок : английские
Язык : English
Default : Нет
Forced : Нет

Меню
00:00:00.000 : :Chapter 01
00:04:15.254 : :Chapter 02
00:06:07.366 : :Chapter 03
00:10:47.063 : :Chapter 04
00:14:20.276 : :Chapter 05
00:19:47.185 : :Chapter 06
00:22:27.346 : :Chapter 07
00:24:54.909 : :Chapter 08
00:28:44.305 : :Chapter 09
00:31:44.402 : :Chapter 10
00:36:00.241 : :Chapter 11
00:38:09.829 : :Chapter 12
00:42:03.938 : :Chapter 13
00:46:06.972 : :Chapter 14
00:48:11.430 : :Chapter 15
00:50:44.082 : :Chapter 16
00:53:13.690 : :Chapter 17
00:58:11.487 : :Chapter 18
01:00:35.840 : :Chapter 19
01:05:30.426 : :Chapter 20
01:08:42.283 : :Chapter 21
01:11:44.800 : :Chapter 22
01:14:04.939 : :Chapter 23
01:17:10.709 : :Chapter 24
01:20:43.546 : :Chapter 25
01:23:06.606 : :Chapter 26
01:24:13.465 : :Chapter 27
01:27:25.323 : :Chapter 28
01:30:00.019 : :Chapter 29
01:32:35.508 : :Chapter 30
01:35:14.542 : :Chapter 31
01:37:32.345 : :Chapter 32
01:40:13.465 : :Chapter 33
01:43:11.727 : :Chapter 34
01:43:53.852 : :Chapter 35
01:44:25.050 : :Chapter 36
pb.wtf



Скачать Кинг Конг через торрент http://s019.radikal.ru/i617/1708/de/2580dc0beefc.jpg Скачать фильм Кинг Конг через торрент бесплантно в хорошем качестве О фильме: На отдалённом диком острове научная экспедиция захватывает громадную человекообразную обезьяну и, не мудрствуя лукаво, привозит ... 5 10 1
Info! Золотая раздача, скачанное не засчитывается.
Торрент: Зарегистрирован [2017-08-19 09:00] · скачан: 1 раз
Статус: √ проверено
Размер: 10.06 GB
Как cкачать? Как скачать Кинг Конг через торрент | qTorrent

% Раздел Тема Автор DL S | L
Ultra HD (UHD: 2K, 4K, 8K) — видео сверхвысокой чёткости [ 70.7 GB ] Кинг Конг / King Kong [2005 UHD BDRip 2160p] DUB + 2xAVO + DVO + MVO [Расширенная Версия] sheker187 Скачать
1 | 0
Ultra HD (UHD: 2K, 4K, 8K) — видео сверхвысокой чёткости [ 100.19 GB ] Кинг Конг / King Kong [2005 Мело UHD BDRemux 2160p] 2xAVO+2xMVO +MVO +DUB [Режиссерская версия] [] bober100 Скачать
1 | 0
Фильмы [HD 720p, 1080p] (Хороший звук DUB, MVO) [ 3.95 GB ] Кинг Конг / King Kong [1933 BDRip 720p by msltel] DVO msltel Скачать
1 | 0

28-11-2019 20:33  

Отключить всю рекламу на сайте

19-08-2017 18:41 Кинг Конг Скачать торрент  

На 3 скрине крокодил Генаpb.wtf



20-08-2017 21:57 Кинг Конг Скачать торрент  

forsage79 писал(а):

На 3 скрине крокодил Гена

pb.wtf



    Дорогой пользователь! Огромная просьба, поблагодарите релизера, оцените раздачу и оставьте свои комментарий, если Вы скачали Кинг Конг через торрент бесплатно! Внесите свою лепту в развитие PiratBit!
    Комментировать посты могут только пользователи прошедшие не сложную регистрацию
    Показать сообщения:    

    Кинг Конг через торрент
    Скачать бесплатно Кинг Конг
    Кинг Конг скачать торрент
    Кинг Конг смотреть онлайн
    Cкачать фильм Кинг Конг бесплатно
    Кинг Конг скачать торрент в хорошем качестве
    Кинг Конг смотреть онлайн бесплатно в хорошем качестве


    Вы не можете начинать темы
    Вы не можете отвечать на сообщения
    Вы не можете редактировать свои сообщения
    Вы не можете удалять свои сообщения
    Вы не можете голосовать в опросах
    Вы не можете прикреплять файлы к сообщениям
    Вы можете скачивать файлы