Ссылка на приватное зеркало нашего сайта всего за 1$. Внимание количество ограничено!!!

2 сезон

iTunes

1 сезон

1

2 сезон

2 сезон

iTunes

1 сезон

RePack

30

Ultimate

ВАЖНО

ИГРА 18+

pack

RePack

MK11
pack

Забери бонус

RePack

jed

!!Акция!!

Alien_Rage

RePack

fifa19

RePack

Assassins Creed: Odyssey

RePack

NEED FOR SPEED™ PAYBACK

4 сезон

9 сезон

Бесстыжие 9 сезон

Все сериалы

все сериалы на PB.wtf

RePack

FAR CRY 5
  

Защитники / The Defenders / Сезон: 1 / Серии 1-8 из 8 (С.Дж. Кларксон / S.J. Clarkson) [2017, фантастика, боевик, криминал, комикс, WEBRip 1080p] [Sub] (Rus) pb.wtf

Защитники через торрент pb.wtf

Размер: 22.33 GB | Добавлен: 3 года 3 мес. назад | Торрент скачан:36 раз
Скачать  

19-08-2017 16:17 Защитники Скачать торрент  

Защитники / The Defenders Год выпуска: 2017
Страна: США
Жанр: фантастика, боевик, криминал, комикс
Продолжительность: 1х ~ 00:50:00
Перевод: Русские субтитры (SFI)

Режиссёры: С.Дж. Кларксон / S.J. Clarkson, Ута Бризвитц / Uta Briesewitz, Питер Хор / Peter Hoar

В ролях: Финн Джонс, Майк Колтер, Чарли Кокс, Джессика Хенвик, Кристен Риттер, Сигурни Уивер, Элоди Юнг, Розарио Доусон, Бабс Олусанмокун, Элден Хенсон

Описание: Сорвиголова, Джессика Джонс, Люк Кейдж и Железный Кулак успешно защищали Нью-Йорк поодиночке, однако противники становятся всё опаснее, коварнее и мощнее. Для того чтобы противостоять криминальной организации “Рука”, которая запустила свои щупальца во все сферы жизни города, супергерои должны объединить свои силы и стать единой командой. Под именем Защитников они выйдут на поединок против зла и сделают всё возможное и невозможное, чтобы не дать мраку поглотить любимый город.

Сэмпл

Качество: WEBRip 1080p
Контейнер: MKV
Видео: MPEG4 Video (H264), 1920x1080, 23.976fps, 9000 kbps
Аудио: Eng, Dolby AC3, 48000Hz, 6ch, 384kbps
Субтитры: Русские (SFI), Английские
General
Unique ID : 226745799701843359014152116318553772182 (0xAA95A70CECFCE8DDBC8BFEEAE8C81096)
Complete name : E:\Media\Сериалы\Marvels.The.Defenders.S01.1080p.WEBRip.x264\marvels.the.defenders.s01e01.1080p.webrip.x264-strife.mkv
Format : Matroska
Format version : Version 4 / Version 2
File size : 3.44 GiB
Duration : 51 min 43 s
Overall bit rate : 9 531 kb/s
Encoded date : UTC 2017-08-18 10:25:25
Writing application : mkvmerge v8.3.0 ('Over the Horizon') 64bit
Writing library : libebml v1.3.1 + libmatroska v1.4.2

Video
ID : 1
Format : AVC
Format/Info : Advanced Video Codec
Format profile : [url=mailto:High@L4.1]High@L4.1[/url]
Format settings, CABAC : Yes
Format settings, ReFrames : 4 frames
Codec ID : V_MPEG4/ISO/AVC
Duration : 51 min 43 s
Bit rate : 9 145 kb/s
Width : 1 920 pixels
Height : 1 080 pixels
Display aspect ratio : 16:9
Frame rate mode : Constant
Frame rate : 23.976 (24000/1001) FPS
Color space : YUV
Chroma subsampling : 4:2:0
Bit depth : 8 bits
Scan type : Progressive
Bits/(Pixel*Frame) : 0.184
Stream size : 3.30 GiB (96%)
Writing library : x264 core 152 r2851 ba24899
Encoding settings : cabac=1 / ref=4 / deblock=1:-3:-3 / analyse=0x3:0x113 / me=umh / subme=8 / psy=1 / psy_rd=1.00:0.15 / mixed_ref=1 / me_range=16 / chroma_me=1 / trellis=2 / 8x8dct=1 / cqm=0 / deadzone=21,11 / fast_pskip=0 / chroma_qp_offset=-2 / threads=12 / lookahead_threads=2 / sliced_threads=0 / nr=0 / decimate=1 / interlaced=0 / bluray_compat=0 / constrained_intra=0 / bframes=3 / b_pyramid=2 / b_adapt=1 / b_bias=0 / direct=3 / weightb=1 / open_gop=0 / weightp=2 / keyint=240 / keyint_min=23 / scenecut=40 / intra_refresh=0 / rc_lookahead=50 / rc=crf / mbtree=1 / crf=17.0 / qcomp=0.60 / qpmin=0 / qpmax=69 / qpstep=4 / ip_ratio=1.40 / aq=3:0.80
Language : English
Default : Yes
Forced : No

Audio
ID : 2
Format : AC-3
Format/Info : Audio Coding 3
Mode extension : CM (complete main)
Format settings, Endianness : Big
Codec ID : A_AC3
Duration : 51 min 43 s
Bit rate mode : Constant
Bit rate : 384 kb/s
Channel(s) : 6 channels
Channel positions : Front: L C R, Side: L R, LFE
Sampling rate : 48.0 kHz
Frame rate : 31.250 FPS (1536 spf)
Bit depth : 16 bits
Compression mode : Lossy
Stream size : 142 MiB (4%)
Language : English
Default : Yes
Forced : No

Text
ID : 3
Format : UTF-8
Codec ID : S_TEXT/UTF8
Codec ID/Info : UTF-8 Plain Text
Duration : 49 min 7 s
Bit rate : 64 b/s
Count of elements : 670
Stream size : 23.3 KiB (0%)
Language : English
Default : No
Forced : No
скриншот  скриншот  скриншот  
pb.wtf



Скачать Защитники через торрент http://s010.youpic.su/pictures/1503093600/7ac9138f65f2d4a696f38ffc07226c70.jpg Скачать фильм Защитники через торрент бесплантно в хорошем качестве Описание: Сорвиголова, Джессика Джонс, Люк Кейдж и Железный Кулак успешно защищали Нью-Йорк поодиночке, однако противники становятся всё ... 10 10 3
Торрент: Зарегистрирован [2017-08-20 15:21] · скачан: 36 раз
Статус: √ проверено
Размер: 22.33 GB
Как cкачать? Как скачать Защитники через торрент | qTorrent

% Раздел Тема Автор DL S | L
Зарубежные сериалы [ 55.41 GB ] Защитники / The Defenders / Сезон: 1 / Серии: 1-8 из 8 [2017 WEBRip 1080p] MVO [TVShows] bober100 Скачать
1 | 0
Зарубежные сериалы [ 12.64 GB ] Защитники / The Defenders / Сезон: 1 / Серии: 1-8 из 8 (С.Дж. Кларксон Ута Бризвитц Питер Хор [2017 WEB-DL 1080p] MVO [LostFilm] bober100 Скачать
1 | 0
Зарубежные сериалы [ 123.48 GB ] Защитники / Marvel's The Defenders / Сезон: 1 / Серии: 1-8 из 8 [2017 WEBRip 2160p] MVO [BaibaKo] bober100 Скачать
1 | 0
Зарубежные сериалы [ 7.24 GB ] Защитники / The Defenders / Сезон: 1 / Серии: 1-8 из 8 [2017 ... WEBRip-AVC by keeper.52] MVO + Original + Sub keeper.52 Скачать
2 | 0
Зарубежные сериалы [ 7.24 GB ] Защитники / The Defenders / Сезон: 1 / Серии: 1-8 из 8 [2017 WEBRip от keeper.52] MVO keeper.52 Скачать
2 | 0
Зарубежные сериалы [ 12.64 GB ] Защитники / The Defenders / Сезон: 1 / Серии 1-8 из 8 [2017 комикс WEBRip 1080p] [MVO] killermax2013 Скачать
1 | 0
Зарубежные сериалы [ 7.11 GB ] Защитники / Marvel's The Defenders / Сезон 1 / Серии 1-8 из 8 [2017 WEBRip 720p] MVO [Jaskier] bober100 Скачать
1 | 0

28-11-2019 20:33  

Отключить всю рекламу на сайте

20-08-2017 15:21 Защитники Скачать торрент  

добавлены все серииpb.wtf



    Дорогой пользователь! Огромная просьба, поблагодарите релизера, оцените раздачу и оставьте свои комментарий, если Вы скачали Защитники через торрент бесплатно! Внесите свою лепту в развитие PiratBit!
    Комментировать посты могут только пользователи прошедшие не сложную регистрацию
    Показать сообщения:    

    Защитники через торрент
    Скачать бесплатно Защитники
    Защитники скачать торрент
    Защитники смотреть онлайн
    Cкачать фильм Защитники бесплатно
    Защитники скачать торрент в хорошем качестве
    Защитники смотреть онлайн бесплатно в хорошем качестве


    Вы не можете начинать темы
    Вы не можете отвечать на сообщения
    Вы не можете редактировать свои сообщения
    Вы не можете удалять свои сообщения
    Вы не можете голосовать в опросах
    Вы не можете прикреплять файлы к сообщениям
    Вы можете скачивать файлы