новый адрес пиратбит piratbit
Мега распродажа FORZA HORIZON 4 ULTIMATE+ВСЕ DLC+ОНЛАЙН всего за 499р. 349 руб. (супер цена). Внимание количество ограничено!!!

iTunes

1+1

iTunes

мы

iTunes

1

iTunes

Чернобыль

iTunes

Ральф против интернета

Лицензия

ПШазам

Лицензия

Игра престолов

Лицензия

30
pack

ВАЖНО

!!Акция!!

Alien_RageХит недели

RePack

Resident Evil 21

ИГРА 18+

pack

RePack

Metro:Exodus

!!Акция!!

Alien_Rage

RePack

fifa19

RePack

Assassins Creed: Odyssey

RePack

NEED FOR SPEED™ PAYBACK

3 сезон

9 сезон

Бесстыжие 9 сезон

Все сериалы

все сериалы на PB.wtf

RePack

FAR CRY 5
Ребята, катастрофически не хватает 1900р. для оплаты серверов за Октябрь (всвязи с блокировками трафик упал в 3 раза), 1-2р., выручайте.
  

Волшебная лампа Аладдина (Борис Рыцарев) [1966, СССР, детский фильм, сказка, экранизация, BDRip от AVP Studio] pb.wtf

Волшебная лампа Аладдина через торрент pb.wtf

Размер: 745 MB | Добавлен: 2 года 2 мес. назад | Торрент скачан:24 раза
Скачать  

20-08-2017 09:08 Волшебная лампа Аладдина Скачать торрент  

Волшебная лампа Аладдина
Страна: СССР
Производство: к/с им. М.Горького

Жанр: детский фильм, сказка, экранизация
Год выпуска: 1966
Продолжительность: 01:18:31

Перевод: Не требуется
Cубтитры: нет
Оригинальная аудиодорожка: русский

Режиссер: Борис Рыцарев

В ролях:
Борис Быстров, Додо Чоговадзе, Сарры Каррыев, Андрей Файт, Отар Коберидзе, Екатерина Верулашвили, Гусейнага Садыхов, Георгий Милляр, Отар Биланишвили, Валентин Брылеев, Юрий Чекулаев...
Об актёрах подробней

Описание:
По мотивам одноименной арабской сказки.
Злой колдун-магрибинец взывает к звездам, чтобы те поведали ему имя человека, что найдет волшебную лампу, способную творить чудеса. Звезды ответили: "Это Аладдин".
В Багдаде живет дочь султана, красавица Будур. Всякий, кто посмеет взглянуть на нее, будет казнен. Но своевольная и капризная принцесса заставляет Аладдина взглянуть на нее. Юноша как увидел принцессу, так сразу в нее и влюбился. А волшебная лампа со всемогущим джином, готовым выполнить любой приказ повелителя, помогла Аладдину сохранить свою любовь и справиться с Магрибинцем.

Источник: BDRemux 1080p
Качество видео: BDRip
Формат видео: AVI

Видео: 720x288 (2,500:1), 25 fps, XviD ~ 869 kbps avg, 0.168 bit/pixel
Аудио: 48 kHz, Dolby Digital AC3 5.1, 448 kbps

Раздача от:
Общее
Полное имя : Volshebnaya.lampa.Aladdina.1966.BDRip_[New-team]_by_AVP_Studio.avi
Формат : AVI
Формат/Информация : Audio Video Interleave
Размер файла : 745 Мбайт
Продолжительность : 1 ч. 18 м.
Общий поток : 1327 Кбит/сек
Программа кодирования : VirtualDubMod 1.5.10.3 | www.virtualdub-fr.org || (build 2550/release)
Библиотека кодирования : VirtualDubMod build 2550/release

Видео
Идентификатор : 0
Формат : MPEG-4 Visual
Профиль формата : Advanced Simple@L5
Параметр BVOP формата : 1
Параметр QPel формата : Нет
Параметр GMC формата : Без точки перехода
Параметр матрицы формата : Выборочная
Идентификатор кодека : XVID
Идентификатор кодека/Подсказка : XviD
Продолжительность : 1 ч. 18 м.
Битрейт : 869 Кбит/сек
Ширина : 720 пикселей
Высота : 288 пикселей
Соотношение сторон : 2,500
Частота кадров : 25,000 кадров/сек
Цветовое пространство : YUV
Субдискретизация насыщенности : 4:2:0
Битовая глубина : 8 бит
Тип развёртки : Прогрессивная
Метод сжатия : С потерями
Бит/(Пиксели*Кадры) : 0.168
Размер потока : 488 Мбайт (66%)
Библиотека кодирования : XviD 73

Аудио
Идентификатор : 1
Формат : AC-3
Формат/Информация : Audio Coding 3
Параметр Endianness формата : Big
Идентификатор кодека : 2000
Продолжительность : 1 ч. 18 м.
Вид битрейта : Постоянный
Битрейт : 448 Кбит/сек
Каналы : 6 каналов
Расположение каналов : Front: L C R, Side: L R, LFE
Частота : 48,0 КГц
Частота кадров : 31,250 кадров/сек (1536 SPF)
Битовая глубина : 16 бит
Метод сжатия : С потерями
Размер потока : 252 Мбайт (34%)
Выравнивание : Разделение по промежуткам
Продолжительность промежутка : 40 мс. (1,00 видеокадр)
Время предзагрузки промежутка : 500 мс
pb.wtf



Скачать Волшебная лампа Аладдина через торрент http://s008.radikal.ru/i306/1708/36/7fca63824262.png Скачать фильм Волшебная лампа Аладдина через торрент бесплантно в хорошем качестве Описание:По мотивам одноименной арабской сказки.Злой колдун-магрибинец взывает к звездам, чтобы те поведали ему имя человека, что найдет ... 10 10 1
Info! Золотая раздача, скачанное не засчитывается.
Торрент: Зарегистрирован [2017-08-20 09:08] · скачан: 24 раз
Статус: √ проверено
Размер: 745 MB
Как cкачать? Как скачать Волшебная лампа Аладдина через торрент | qTorrent

% Раздел Тема Автор DL S | L
Кино СССР [ 2.18 GB ] Волшебная лампа Аладдина [1966 СССР детский фильм сказка экранизация BDRip 720p от AVP Studio] AVP Studio Скачать
1 | 0
Кино СССР [ 1.09 GB ] Волшебная лампа Аладдина [1966 СССР детский фильм сказка экранизация BDRip-AVC от AVP Studio] AVP Studio Скачать
1 | 0
Кино СССР [ 3.72 GB ] Волшебная лампа Аладдина [1966 СССР детский фильм сказка экранизация BDRip 1080p от AVP Studio] AVP Studio Скачать
1 | 0
Детские отечественные фильмы [ 1.56 GB ] Волшебная лампа Аладдина [1966 сказка DVDRip] -=Cherry=- Скачать
1 | 0


>> Регистрируемся здесь <<






Отзывы и комментарии о схеме читаем и пишем здесь: ---> Отзывы и комментарии о схеме

Новые благодарочки в телеграм довольных пользователей:
скриншот   скриншот   скриншот   скриншот   скриншот
    Дорогой пользователь! Огромная просьба, поблагодарите релизера, оцените раздачу и оставьте свои комментарий, если Вы скачали Волшебная лампа Аладдина через торрент бесплатно! Внесите свою лепту в развитие PiratBit!
    Комментировать посты могут только пользователи прошедшие не сложную регистрацию
    Показать сообщения:    

    Волшебная лампа Аладдина через торрент
    Скачать бесплатно Волшебная лампа Аладдина
    Волшебная лампа Аладдина скачать торрент
    Волшебная лампа Аладдина смотреть онлайн
    Cкачать фильм Волшебная лампа Аладдина бесплатно
    Волшебная лампа Аладдина скачать торрент в хорошем качестве
    Волшебная лампа Аладдина смотреть онлайн бесплатно в хорошем качестве


    Вы не можете начинать темы
    Вы не можете отвечать на сообщения
    Вы не можете редактировать свои сообщения
    Вы не можете удалять свои сообщения
    Вы не можете голосовать в опросах
    Вы не можете прикреплять файлы к сообщениям
    Вы можете скачивать файлы