Достать ножи: Стеклянная луковица

MVO

Добыча

Дубляж

Уэнсдэй

1 сезон

Тор

Дубляж

13 клиническая

1 сезон

Жестокая ночь

MVO

Одни из нас

1 сезон

Deluxe

pack

Рекомендуем

30

Пиратка

ВАЖНО

ВАЖНО

Ghostwire

Пиратка

jed

RePack

nioh2

RePack

RDR2

RePack

NEED FOR SPEED™ PAYBACK

RePack

скачать торрент

Кинопоиск HD

Острые козырьки 6 сезон

6 сезон

FAR CRY 6

RePack

скачать торрент

Лицензия

скачать торрент

MVO

1

1 сезон

скачать торрент

1 сезон

скачать торрент

Лицензия

  

Волшебная лампа Аладдина (Борис Рыцарев) [1966, СССР, детский фильм, сказка, экранизация, BDRip 720p от AVP Studio]

Волшебная лампа Аладдина через торрент pb.wtf

Размер: 2.18 GB | Добавлен: 5 лет 5 мес. назад | Торрент скачан:32 раза
Смотреть онлайн | Скачать | Поддержите нас   

20-08-2017 09:10 Волшебная лампа Аладдина Скачать торрент  

Волшебная лампа Аладдина
Страна: СССР
Производство: к/с им. М.Горького

Жанр: детский фильм, сказка, экранизация
Год выпуска: 1966
Продолжительность: 01:18:31

Перевод: Не требуется
Cубтитры: нет
Оригинальная аудиодорожка: русский

Режиссер: Борис Рыцарев

В ролях:
Борис Быстров, Додо Чоговадзе, Сарры Каррыев, Андрей Файт, Отар Коберидзе, Екатерина Верулашвили, Гусейнага Садыхов, Георгий Милляр, Отар Биланишвили, Валентин Брылеев, Юрий Чекулаев...
Об актёрах подробней

Описание:
По мотивам одноименной арабской сказки.
Злой колдун-магрибинец взывает к звездам, чтобы те поведали ему имя человека, что найдет волшебную лампу, способную творить чудеса. Звезды ответили: "Это Аладдин".
В Багдаде живет дочь султана, красавица Будур. Всякий, кто посмеет взглянуть на нее, будет казнен. Но своевольная и капризная принцесса заставляет Аладдина взглянуть на нее. Юноша как увидел принцессу, так сразу в нее и влюбился. А волшебная лампа со всемогущим джином, готовым выполнить любой приказ повелителя, помогла Аладдину сохранить свою любовь и справиться с Магрибинцем.

Источник: BDRemux 1080p
Качество видео: BDRip 720p
Формат видео: MKV

Видео: 1280x518 (2,500:1), 25 fps, H264 ~ 3523 kbps avg, 0.213 bit/pixel
Аудио: 48 kHz, Dolby Digital AC3 5.1, 448 kbps

Раздача от:
Общее
Полное имя : Volshebnaya.lampa.Aladdina.1966.BDRip720p_[New-team]_by_AVP_Studio.mkv
Формат : Matroska
Версия формата : Version 2
Размер файла : 2,18 Гбайт
Продолжительность : 1 ч. 18 м.
Общий поток : 3973 Кбит/сек
Дата кодирования : UTC 2017-08-18 16:22:18
Программа кодирования : mkvmerge v6.1.0 ('Old Devil') built on Mar 4 2013 09:10:42
Библиотека кодирования : libebml v1.3.0 + libmatroska v1.4.0

Видео
Идентификатор : 1
Формат : AVC
Формат/Информация : Advanced Video Codec
Профиль формата : [email protected]
Параметр CABAC формата : Да
Параметр RefFrames формата : 8 кадров
Идентификатор кодека : V_MPEG4/ISO/AVC
Продолжительность : 1 ч. 18 м.
Битрейт : 3523 Кбит/сек
Ширина : 1280 пикселей
Высота : 518 пикселей
Соотношение сторон : 2,500
Режим частоты кадров : Постоянный
Частота кадров : 25,000 кадров/сек
Цветовое пространство : YUV
Субдискретизация насыщенности : 4:2:0
Битовая глубина : 8 бит
Тип развёртки : Прогрессивная
Бит/(Пиксели*Кадры) : 0.213
Размер потока : 1,89 Гбайт (87%)
Библиотека кодирования : x264 core 130 r2273 b3065e6
Настройки программы : cabac=1 / ref=8 / deblock=1:-3:-3 / analyse=0x3:0x113 / me=umh / subme=10 / psy=1 / psy_rd=1.00:0.00 / mixed_ref=1 / me_range=32 / chroma_me=1 / trellis=2 / 8x8dct=1 / cqm=0 / deadzone=21,11 / fast_pskip=1 / chroma_qp_offset=-2 / threads=6 / lookahead_threads=1 / sliced_threads=0 / nr=0 / decimate=0 / interlaced=0 / bluray_compat=0 / constrained_intra=0 / bframes=8 / b_pyramid=2 / b_adapt=2 / b_bias=0 / direct=3 / weightb=1 / open_gop=0 / weightp=2 / keyint=250 / keyint_min=25 / scenecut=40 / intra_refresh=0 / rc_lookahead=40 / rc=2pass / mbtree=0 / bitrate=3523 / ratetol=1.0 / qcomp=0.60 / qpmin=0 / qpmax=69 / qpstep=4 / cplxblur=20.0 / qblur=0.5 / vbv_maxrate=50000 / vbv_bufsize=50000 / nal_hrd=none / ip_ratio=1.40 / pb_ratio=1.30 / aq=1:0.80
Default : Да
Forced : Нет

Аудио
Идентификатор : 2
Формат : AC-3
Формат/Информация : Audio Coding 3
Параметр Endianness формата : Big
Идентификатор кодека : A_AC3
Продолжительность : 1 ч. 18 м.
Вид битрейта : Постоянный
Битрейт : 448 Кбит/сек
Каналы : 6 каналов
Расположение каналов : Front: L C R, Side: L R, LFE
Частота : 48,0 КГц
Частота кадров : 31,250 кадров/сек (1536 SPF)
Битовая глубина : 16 бит
Метод сжатия : С потерями
Размер потока : 252 Мбайт (11%)
Default : Да
Forced : Нет



Скачать Волшебная лампа Аладдина через торрент http://s008.radikal.ru/i306/1708/36/7fca63824262.png Скачать, смотреть онлайн Волшебная лампа Аладдина бесплантно в хорошем качестве Описание:По мотивам одноименной арабской сказки.Злой колдун-магрибинец взывает к звездам, чтобы те поведали ему имя человека, что найдет ... 10 10 2
Info! Золотая раздача, скачанное не засчитывается.
Торрент: Зарегистрирован [2017-08-20 09:10] · скачан: 32 раз
Статус: √ проверено
Размер: 2.18 GB
Как cкачать? Как скачать Волшебная лампа Аладдина через торрент | UTorrent

% Раздел Тема Автор DL S | L
Кино СССР [ 1.09 GB ] Волшебная лампа Аладдина | | BDRip-AVC от AVP Studio AVP Studio Скачать
1 | 0
Кино СССР [ 3.72 GB ] Волшебная лампа Аладдина | | 1080p от AVP Studio AVP Studio Скачать
1 | 0
Кино СССР [ 745 MB ] Волшебная лампа Аладдина | | BDRip от AVP Studio AVP Studio Скачать
1 | 0
Детские отечественные фильмы [ 1.56 GB ] Волшебная лампа Аладдина | | DVDRip -=Cherry=- Скачать
1 | 0

28-11-2019 20:33  


Отключить вcю реклaмy на сайте, в т.ч. и в плеере онлайн просмотра!

20-08-2017 10:50 Волшебная лампа Аладдина Скачать торрент  

это год моего рождения-это был для меня суперфильм-смотрел сто раз.



    Дорогой пользователь! Огромная просьба, поблагодарите релизера, оцените раздачу и оставьте свои комментарий, если Вы скачали Волшебная лампа Аладдина через торрент бесплатно!!
    Комментировать посты могут только пользователи прошедшие не сложную регистрацию
    Показать сообщения:    


    Волшебная лампа Аладдина через торрент
    Скачать бесплатно Волшебная лампа Аладдина
    Волшебная лампа Аладдина скачать торрент
    Волшебная лампа Аладдина смотреть онлайн
    Cкачать фильм Волшебная лампа Аладдина бесплатно
    Волшебная лампа Аладдина скачать торрент в хорошем качестве
    Волшебная лампа Аладдина смотреть онлайн бесплатно в хорошем качестве
    Вы не можете начинать темы
    Вы не можете отвечать на сообщения
    Вы не можете редактировать свои сообщения
    Вы не можете удалять свои сообщения
    Вы не можете голосовать в опросах
    Вы не можете прикреплять файлы к сообщениям
    Вы можете скачивать файлы
    Волшебная лампа Аладдина [1966, СССР, детский фильм, сказка, экранизация, BDRip 720p от AVP Studio] смотреть онлайн, скачать торрент picoco.icu