Всегда рабочее зеркало без VPN и Proxy просто перед .vidak.icu напиши любое слово или цифру, Пример http://t795.vidak.icu

MVO

2 сезон

1 сезон

1

1 сезон

iTunes

2 сезон

13

1 сезон

Deluxe

pack

Рекомендуем

Пиратка

30

ВАЖНО

RePack

MK11

RePack

jed

RePack

fifa19

RePack

RDR2

RePack

NEED FOR SPEED™ PAYBACK

Кинопоиск HD

6 сезон

 Острые козырьки 6 сезон

Все сериалы

все сериалы на PB.wtf

RePack

FAR CRY 5

Anonymous, нам критически не хватает 5601 руб. на оплату серверов и переферии за Апрель, помоги нам пожалуйста, вся надежда только на тебя. В благодарность мы отключим тебе всю рекламу на сайте!

×
  
Magnet ссылка

Том на ферме / Tom à la ferme (Ксавье Долан) [2013, драма, триллер, BD Remux 1080р] MVO [Лицензия / iTunes] pb.wtf

Том на ферме через торрент pb.wtf

Размер: 22.85 GB | Добавлен: 4 года 9 мес. назад | Торрент скачан:16 раз
Смотреть онлайн Том на ферме | Скачать    Ребята, помогите собрать деньги на оплату серверов!!!

20-08-2017 11:06 Том на ферме Скачать торрент  

Том на ферме / Tom à la fermeГод выпуска: 2013
Страна: Канада, Франция
Жанр: драма, триллер
Продолжительность: 01:43:03
Перевод: Профессиональный многоголосый [Лицензия / iTunes]
Субтитры: русские (iTunes, notabenoid), английские

Режиссер: Ксавье Долан

rating

В ролях:

Ксавье Долан, Пьер-Ив Кардинал, Лизе Рой, Эвелин Брошу, Мануэль Тадрос, Жак Лавалли, Энн Карон, Оливье Морин

Описание:

Том приезжает в деревню — проститься со своим другом и прочитать речь на похоронах. Припарковав машину рядом с коровником, он стучится в дом, где раньше жил погибший. Но Том еще не подозревает, какая опасность ждет его за дверью.

Качество: BD Remux 1080р
Формат: MKV
Видео кодек: H.264
Аудио кодек: AC3

Видео: MPEG-4 AVC / 29509 kbps / 1920x1080 / 23,976 fps / 16:9 / High Profile 4.1
Аудио#1: Russian AC3 / 5.1 / 48 kHz / 384 kbps / 16 bits |MVO, iTunes|
Аудио#2: French DTS-HD Master Audio / 5.1 / 48 kHz / 1852 kbps / 16 bits (DTS Core: 5.1 / 48 kHz / 1509 kbps / 16 bits) |original|
скриншот   скриншот   скриншот  

Общее
Уникальный идентификатор : 189828266070004767446823074381847293399 (0x8ECF981CEFB1A9B9A81E738A2F536DD7)
Полное имя : G:HDТом на ферме.2013.Blu-Ray.Remux.(1080p).mkv
Формат : Matroska
Версия формата : Version 4 / Version 2
Размер файла : 22,9 Гбайт
Продолжительность : 1 ч. 43 м.
Режим общего битрейта : Переменный
Общий поток : 31,7 Мбит/сек
Дата кодирования : UTC 2016-06-13 15:34:25
Программа кодирования : mkvmerge v9.2.0 ('Photograph') 64bit
Библиотека кодирования : libebml v1.3.3 + libmatroska v1.4.4
Attachments : poster.jpg

Видео
Идентификатор : 1
Формат : AVC
Формат/Информация : Advanced Video Codec
Профиль формата : High@L4.1
Параметр CABAC формата : Да
Параметр ReFrames формата : 4 кадра
Параметр GOP формата : M=3, N=24
Идентификатор кодека : V_MPEG4/ISO/AVC
Продолжительность : 1 ч. 43 м.
Вид битрейта : Переменный
Битрейт : 29,5 Мбит/сек
Максимальный битрейт : 35,0 Мбит/сек
Ширина : 1920 пикселей
Высота : 1080 пикселей
Соотношение сторон : 16:9
Режим частоты кадров : Постоянный
Частота кадров : 23,976 (24000/1001) кадра/сек
Цветовое пространство : YUV
Субдискретизация насыщенности : 4:2:0
Битовая глубина : 8 бит
Тип развёртки : Прогрессивная
Бит/(Пиксели*Кадры) : 0.594
Размер потока : 21,2 Гбайт (93%)
Default : Да
Forced : Нет
Цветовой диапазон : Limited
Основные цвета : BT.709
Характеристики трансфера : BT.709
Коэффициенты матрицы : BT.709

Аудио #1
Идентификатор : 2
Формат : AC-3
Формат/Информация : Audio Coding 3
Расширение режима : CM (complete main)
Параметр Endianness формата : Big
Идентификатор кодека : A_AC3
Продолжительность : 1 ч. 43 м.
Вид битрейта : Постоянный
Битрейт : 384 Кбит/сек
Каналы : 6 каналов
Расположение каналов : Front: L C R, Side: L R, LFE
Частота : 48,0 КГц
Частота кадров : 31,250 кадров/сек (1536 spf)
Метод сжатия : С потерями
Размер потока : 283 Мбайт (1%)
Заголовок : MVO, iTunes
Язык : Russian
Default : Да
Forced : Нет

Аудио #2
Идентификатор : 3
Формат : DTS
Формат/Информация : Digital Theater Systems
Профиль формата : MA / Core
Режим : 16
Параметр Endianness формата : Big
Идентификатор кодека : A_DTS
Продолжительность : 1 ч. 43 м.
Вид битрейта : Переменный / Постоянный
Битрейт : 1852 Кбит/сек / 1509 Кбит/сек
Каналы : 6 каналов
Расположение каналов : Front: L C R, Side: L R, LFE
Частота : 48,0 КГц
Частота кадров : 93,750 кадра/сек (512 spf)
Битовая глубина : 16 бит
Метод сжатия : Без потерь / Lossy
Размер потока : 1,33 Гбайт (6%)
Язык : French
Default : Нет
Forced : Нет

Текст #1
Идентификатор : 4
Формат : UTF-8
Идентификатор кодека : S_TEXT/UTF8
Идентификатор кодека/Информация : UTF-8 Plain Text
Продолжительность : 1 ч. 39 м.
Битрейт : 45 бит/сек
Count of elements : 801
Размер потока : 32,9 Кбайт (0%)
Заголовок : iTunes
Язык : Russian
Default : Нет
Forced : Нет

Текст #2
Идентификатор : 5
Формат : UTF-8
Идентификатор кодека : S_TEXT/UTF8
Идентификатор кодека/Информация : UTF-8 Plain Text
Продолжительность : 1 ч. 38 м.
Битрейт : 42 бит/сек
Count of elements : 644
Размер потока : 30,6 Кбайт (0%)
Заголовок : notabenoid
Язык : Russian
Default : Нет
Forced : Нет

Текст #3
Идентификатор : 6
Формат : UTF-8
Идентификатор кодека : S_TEXT/UTF8
Идентификатор кодека/Информация : UTF-8 Plain Text
Продолжительность : 1 ч. 42 м.
Битрейт : 25 бит/сек
Count of elements : 731
Размер потока : 19,1 Кбайт (0%)
Язык : English
Default : Нет
Forced : Нет

Меню
00:00:00.000 : :Chapter 01
00:01:58.827 : :Chapter 02
00:04:28.184 : :Chapter 03
00:09:03.876 : :Chapter 04
00:11:29.271 : :Chapter 05
00:14:08.722 : :Chapter 06
00:16:09.218 : :Chapter 07
00:18:33.320 : :Chapter 08
00:22:41.318 : :Chapter 09
00:26:48.690 : :Chapter 10
00:30:21.861 : :Chapter 11
00:35:10.191 : :Chapter 12
00:38:06.200 : :Chapter 13
00:40:06.320 : :Chapter 14
00:41:56.430 : :Chapter 15
00:45:34.857 : :Chapter 16
00:47:10.244 : :Chapter 17
00:49:10.697 : :Chapter 18
00:52:30.522 : :Chapter 19
00:55:53.975 : :Chapter 20
00:57:17.976 : :Chapter 21
01:01:21.260 : :Chapter 22
01:04:15.101 : :Chapter 23
01:11:07.888 : :Chapter 24
01:15:45.666 : :Chapter 25
01:19:48.033 : :Chapter 26
01:21:34.973 : :Chapter 27
01:29:09.427 : :Chapter 28
01:31:19.682 : :Chapter 29
01:33:38.029 : :Chapter 30
01:36:58.229 : :Chapter 31

pb.wtf



Скачать Том на ферме через торрент https://pic1.kartinco.top/images/11/namm2.jpg Скачать, смотреть онлайн Том на ферме бесплантно в хорошем качестве Описание: Том приезжает в деревню — проститься со своим другом и прочитать речь на похоронах. Припарковав машину рядом с коровником, он ... 10 10 4
Info! Золотая раздача, скачанное не засчитывается.
Торрент: Зарегистрирован [2017-08-20 11:06] · скачан: 16 раз
Статус: √ проверено
Размер: 22.85 GB
Как cкачать? Как скачать Том на ферме через торрент | UTorrent

% Раздел Тема Автор DL S | L
Арт-хаус и авторское кино [ 1.45 GB ] Том на ферме / Tom à la ferme [2013 HDRip многоголосый] Ворон Скачать
1 | 0

28-11-2019 20:33  

Отключить всю рекламу на сайте

    Дорогой пользователь! Огромная просьба, поблагодарите релизера, оцените раздачу и оставьте свои комментарий, если Вы скачали Том на ферме через торрент бесплатно!
    Комментировать посты могут только пользователи прошедшие не сложную регистрацию
    Показать сообщения:    

    Том на ферме через торрент
    Скачать бесплатно Том на ферме
    Том на ферме скачать торрент
    Том на ферме смотреть онлайн
    Cкачать фильм Том на ферме бесплатно
    Том на ферме скачать торрент в хорошем качестве
    Том на ферме смотреть онлайн бесплатно в хорошем качестве


    Вы не можете начинать темы
    Вы не можете отвечать на сообщения
    Вы не можете редактировать свои сообщения
    Вы не можете удалять свои сообщения
    Вы не можете голосовать в опросах
    Вы не можете прикреплять файлы к сообщениям
    Вы можете скачивать файлы