2 сезон

iTunes

MVO

1

2 сезон

iTunes

iTunes

1 сезон

RePack

30

Ultimate

ВАЖНО

ИГРА 18+

pack

RePack

MK11
pack

Легкие деньги

RePack

jed

RePack

fifa19

RePack

RDR2

RePack

NEED FOR SPEED™ PAYBACK

4 сезон

9 сезон

Бесстыжие 9 сезон

Все сериалы

все сериалы на PB.wtf

RePack

FAR CRY 5

Anonymous, добрый день, мы не успеваем собрать деньги на оплату серверов за декабрь и январь, помогите нам пожалуйста в это трудное время. В качестве благодарности мы отключим Вам всю рекламу на сайте (укажите свой ник в строку Ваше имя)!

×
  
Magnet ссылка

Вскармливание / Feed (Томми Бертелсен) [2017 г., драма, WEB-DLRip, Профессиональный многоголосый Лицензия "iTunes"] pb.wtf

Вскармливание через торрент pb.wtf

Размер: 1.46 GB | Добавлен: 3 года 4 мес. назад | Торрент скачан:62 раза
Скачать  

20-08-2017 18:20 Вскармливание Скачать торрент  

Вскармливание / Feed
Год выпуска: 2017
Страна: США / Indy Entertainment
Жанр: драма
Продолжительность: 01:35:31
Перевод: Профессиональный многоголосый закадровый (iTunes)

Режиссер: Томми Бертелсен

rating

В ролях: Тройэн Эвери Беллисарио, Том Фелтон, Бен Уинчелл, Джеймс Римар, Паула Малкомсон, Кортни Хенгелер, Уилли Гарсон, Дэвид Уоршофски, Адам Шапиро, Тиффани Бун

Описание: Оливия и Мэтью - 18-летние близнецы, рождённые в мире привилегий и больших ожиданий. Между ними нет никаких тайн, они словно единое целое, и даже мечты у них - общие. На пороге выпускного года в школе происходит трагедия, которая уносит жизнь одного из близнецов. Оставшемуся нужно научиться жить без второй половины... или проверить, как далеко они могут зайти, чтобы воссоединиться.

Качество: WEB-DLRip
Формат: AVI
Видео кодек: XviD
Аудио кодек: AC3
Видео: 720x304 (2.37:1), 23.976 fps, XviD build 50 ~1800 kbps avg, 0.34 bit/pixel
Аудио: 48 kHz, AC3 Dolby Digital, 3/2 (L,C,R,l,r) + LFE ch, ~384 kbps
скриншот   скриншот   скриншот   скриншот  

Общее
Полное имя : F:\ФИЛЬМЫ\Вскармливание.2017.WEB-DLRip.avi
Формат : AVI
Формат/Информация : Audio Video Interleave
Размер файла : 1,46 Гбайт
Продолжительность : 1 ч. 35 м.
Общий поток : 2194 Кбит/сек
Программа кодирования : VirtualDubMod 1.5.10.3 | www.virtualdub-fr.org || (build 2550/release)
Библиотека кодирования : VirtualDubMod build 2550/release

Видео
Идентификатор : 0
Формат : MPEG-4 Visual
Профиль формата : Advanced Simple@L5
Параметр BVOP формата : 1
Параметр QPel формата : Нет
Параметр GMC формата : Без точки перехода
Параметр матрицы формата : Default (MPEG)
Идентификатор кодека : XVID
Идентификатор кодека/Подсказка : XviD
Продолжительность : 1 ч. 35 м.
Битрейт : 1800 Кбит/сек
Ширина : 720 пикселей
Высота : 304 пикселя
Соотношение сторон : 2,35:1
Частота кадров : 23,976 (24000/1001) кадра/сек
Цветовое пространство : YUV
Субдискретизация насыщенности : 4:2:0
Битовая глубина : 8 бит
Тип развёртки : Прогрессивная
Метод сжатия : С потерями
Бит/(Пиксели*Кадры) : 0.343
Размер потока : 1,20 Гбайт (82%)
Библиотека кодирования : XviD 1.2.1 (UTC 2008-12-04)

Аудио
Идентификатор : 1
Формат : AC-3
Формат/Информация : Audio Coding 3
Параметр Endianness формата : Big
Идентификатор кодека : 2000
Продолжительность : 1 ч. 35 м.
Вид битрейта : Постоянный
Битрейт : 384 Кбит/сек
Каналы : 6 каналов
Расположение каналов : Front: L C R, Side: L R, LFE
Частота : 48,0 КГц
Частота кадров : 31,250 кадров/сек (1536 SPF)
Битовая глубина : 16 бит
Метод сжатия : С потерями
Размер потока : 262 Мбайт (18%)
Выравнивание : Разделение по промежуткам
Продолжительность промежутка : 42 мс. (1,00 видеокадр)
Время предзагрузки промежутка : 500 мс.
ServiceKind/String : Complete Main

pb.wtf



Скачать Вскармливание через торрент http://pic1.kartinco.top/images/11/4knvx.jpg Скачать фильм Вскармливание через торрент бесплантно в хорошем качестве Описание: Оливия и Мэтью - 18-летние близнецы, рождённые в мире привилегий и больших ожиданий. Между ними нет никаких тайн, они словно ... 7 10 5
Торрент: Зарегистрирован [2017-08-20 18:20] · скачан: 62 раз
Статус: √ проверено
Размер: 1.46 GB
Как cкачать? Как скачать Вскармливание через торрент | UTorrent

% Раздел Тема Автор DL S | L
Фильмы 2017 [DVDrip, WEB-DLRip, HDrip] (DUB, MVO) [ 1.64 GB ] Вскармливание / Feed [2017 WEB-DLRip-AVC] MVO bober100 Скачать
1 | 0
Фильмы (WEB-DL 720p, 1080p) [ 3.55 GB ] Вскармливание / Feed [2017 WEB-DL 1080p] MVO -Lexx- Скачать
1 | 0


Последний раз редактировалось: coc900 (2017-08-20 19:16), всего редактировалось 1 раз

28-11-2019 20:33  

Отключить всю рекламу на сайте

20-08-2017 18:34 Вскармливание Скачать торрент  

coc900 писал(а):

Качество: HDRip

coc900 писал(а):

Вскармливание.2017.WEB-DLRip.avi

coc900, укажите правильно качество видео.pb.wtf



20-08-2017 19:17 Вскармливание Скачать торрент  

-Lexx-, исправилpb.wtf



20-08-2017 19:19 Вскармливание Скачать торрент  

с натяжкой можно поглядеть.если уж совсем делать нефиг.. фигня в общем.pb.wtf



22-08-2017 16:20 Вскармливание Скачать торрент  

так себеpb.wtf



    Дорогой пользователь! Огромная просьба, поблагодарите релизера, оцените раздачу и оставьте свои комментарий, если Вы скачали Вскармливание через торрент бесплатно! Внесите свою лепту в развитие PiratBit!
    Комментировать посты могут только пользователи прошедшие не сложную регистрацию
    Показать сообщения:    

    Вскармливание через торрент
    Скачать бесплатно Вскармливание
    Вскармливание скачать торрент
    Вскармливание смотреть онлайн
    Cкачать фильм Вскармливание бесплатно
    Вскармливание скачать торрент в хорошем качестве
    Вскармливание смотреть онлайн бесплатно в хорошем качестве


    Вы не можете начинать темы
    Вы не можете отвечать на сообщения
    Вы не можете редактировать свои сообщения
    Вы не можете удалять свои сообщения
    Вы не можете голосовать в опросах
    Вы не можете прикреплять файлы к сообщениям
    Вы можете скачивать файлы