Ссылка на приватное зеркало всего за 1$. Внимание количество ограничено!!!

iTunes

iTunes

iTunes

1

iTunes

iTunes

iTunes

iTunes

iTunes

30
pack

$ от Little Big

ВАЖНО

!!Акция!!

Alien_RageХит недели

RePack

Resident Evil 21

ИГРА 18+

pack

RePack

jed

!!Акция!!

Alien_Rage

RePack

fifa19

RePack

Assassins Creed: Odyssey

RePack

NEED FOR SPEED™ PAYBACK

4 сезон

9 сезон

Бесстыжие 9 сезон

Все сериалы

все сериалы на PB.wtf

RePack

FAR CRY 5
  

Берлинский синдром / Berlin Syndrome (Кейт Шортланд) [2017, Триллер, WEB-DL 1080p] DUB [iTunes] pb.wtf

Берлинский синдром через торрент pb.wtf

Размер: 4.31 GB | Добавлен: 2 года 10 мес. назад | Торрент скачан:892 раза
Скачать  

20-08-2017 21:07 Берлинский синдром Скачать торрент  

Берлинский синдром / Berlin SyndromeГод выпуска: 2017
Страна: Австралия, Германия
Жанр: Триллер
Продолжительность: 01:55:57
Перевод: Дубляж iTunes
Субтитры: английские

Режиссер: Кейт Шортланд

rating

В ролях:

Тереза Палмер, Макс Римельт, Люси Арон, Сем Тункай, Маттиас Хабих, Эмма Бадинг, Майя Абсберг, Морган Ферру, Кристина Костив, Чарли Торн

Описание:

Во время отпуска в Берлине Клэр знакомится с обаятельным Энди и между ними сразу возникает влечение. После совместной прогулки по городу они проводят ночь вместе, но то, что на первый взгляд кажется началом бурного романа, неожиданно принимает зловещий оборот.

Качество: WEB-DL 1080p
Формат: MKV
Видео кодек: H.264
Аудио кодек: AC3

Видео: 4553 Kb/s, 1920x792
Аудио#1: Russian: AC3, 384 kb/s (6 ch)
Аудио#2: English: AC3, 384 kb/s (6 ch)
скриншот   скриншот   скриншот  

Общее
Уникальный идентификатор : 217331475061280064768604424438545611694 (0xA380850265D2B3A9B3E193CF05137BAE)
Полное имя : D:\Berlin.Syndrome.2017.D.WEB-DL.1O8Op.mkv
Формат : Matroska
Версия формата : Version 2
Размер файла : 4,31 Гбайт
Продолжительность : 1 ч. 55 м.
Общий поток : 5323 Кбит/сек
Дата кодирования : UTC 2017-08-20 18:14:53
Программа кодирования : mkvmerge v8.3.0 ('Over the Horizon') 64bit
Библиотека кодирования : libebml v1.3.1 + libmatroska v1.4.2

Видео
Идентификатор : 1
Формат : AVC
Формат/Информация : Advanced Video Codec
Профиль формата : High@L4
Параметр CABAC формата : Да
Параметр ReFrames формата : 5 кадров
Идентификатор кодека : V_MPEG4/ISO/AVC
Продолжительность : 1 ч. 55 м.
Битрейт : 4553 Кбит/сек
Ширина : 1920 пикселей
Высота : 792 пикселя
Соотношение сторон : 2,40:1
Режим частоты кадров : Постоянный
Частота кадров : 24,000 кадра/сек
Цветовое пространство : YUV
Субдискретизация насыщенности : 4:2:0
Битовая глубина : 8 бит
Тип развёртки : Прогрессивная
Бит/(Пиксели*Кадры) : 0.125
Размер потока : 3,69 Гбайт (86%)
Язык : English
Default : Да
Forced : Нет
Цветовой диапазон : Limited
Основные цвета : BT.709
Характеристики трансфера : BT.709
Коэффициенты матрицы : BT.709

Аудио #1
Идентификатор : 2
Формат : AC-3
Формат/Информация : Audio Coding 3
Расширение режима : CM (complete main)
Параметр Endianness формата : Big
Идентификатор кодека : A_AC3
Продолжительность : 1 ч. 55 м.
Вид битрейта : Постоянный
Битрейт : 384 Кбит/сек
Каналы : 6 каналов
Расположение каналов : Front: L C R, Side: L R, LFE
Частота : 48,0 КГц
Частота кадров : 31,250 кадров/сек (1536 spf)
Метод сжатия : С потерями
Задержка видео : -42 мс.
Размер потока : 318 Мбайт (7%)
Язык : Russian
Default : Да
Forced : Нет

Аудио #2
Идентификатор : 3
Формат : AC-3
Формат/Информация : Audio Coding 3
Расширение режима : CM (complete main)
Параметр Endianness формата : Big
Идентификатор кодека : A_AC3
Продолжительность : 1 ч. 55 м.
Вид битрейта : Постоянный
Битрейт : 384 Кбит/сек
Каналы : 6 каналов
Расположение каналов : Front: L C R, Side: L R, LFE
Частота : 48,0 КГц
Частота кадров : 31,250 кадров/сек (1536 spf)
Метод сжатия : С потерями
Задержка видео : -42 мс.
Размер потока : 318 Мбайт (7%)
Язык : English
Default : Нет
Forced : Нет

Текст #1
Идентификатор : 4
Формат : UTF-8
Идентификатор кодека : S_TEXT/UTF8
Идентификатор кодека/Информация : UTF-8 Plain Text
Продолжительность : 1 ч. 17 м.
Битрейт : 5 бит/сек
Count of elements : 155
Размер потока : 3,40 Кбайт (0%)
Заголовок : FORCED
Язык : English
Default : Нет
Forced : Нет

Текст #2
Идентификатор : 5
Формат : UTF-8
Идентификатор кодека : S_TEXT/UTF8
Идентификатор кодека/Информация : UTF-8 Plain Text
Продолжительность : 1 ч. 46 м.
Битрейт : 11 бит/сек
Count of elements : 406
Размер потока : 9,20 Кбайт (0%)
Язык : English
Default : Нет
Forced : Нет

Меню
00:00:00.000 : en:Opening Sequence
00:07:13.000 : en:In Search Of Something
00:14:44.000 : en:Empty Places
00:21:42.000 : en:Locked In
00:30:21.000 : en:Mine
00:36:10.000 : en:What Is Going On?
00:43:56.000 : en:There's Nowhere To Go
00:50:24.000 : en:You Have Me
00:58:28.000 : en:Who Was That?
01:05:21.000 : en:Left Alone
01:12:30.000 : en:My Father's Dead
01:19:55.000 : en:Do You Like It?
01:28:52.000 : en:New Year's Eve
01:36:57.000 : en:Pack Your Things
01:43:09.000 : en:Escape
01:50:48.000 : en:End Credits
pb.wtf



Скачать Берлинский синдром через торрент http://i95.fastpic.ru/big/2017/0820/bc/2a516b98ef09b2b14acabe637e1e75bc.jpg Скачать фильм Берлинский синдром через торрент бесплантно в хорошем качестве Описание: Во время отпуска в Берлине Клэр знакомится с обаятельным Энди и между ними сразу возникает влечение. После совместной прогулки по ... 9.9 10 18
Info! Золотая раздача, скачанное не засчитывается.
Торрент: Зарегистрирован [2017-08-20 21:07] · скачан: 892 раз
Статус: √ проверено
Размер: 4.31 GB
Как cкачать? Как скачать Берлинский синдром через торрент | qTorrent

% Раздел Тема Автор DL S | L
Фильмы 2017 [DVDrip, WEB-DLRip, HDrip] (DUB, MVO) [ 2.18 GB ] Берлинский синдром / Berlin Syndrome [2017 BDRip] - [] Twi7ter Скачать
6 | 1
Фильмы (Blu-ray, BD-Remux, HDDVD) [ 15.13 GB ] Берлинский синдром / Berlin Syndrome [2017 BD Remux 1080p] DUB+AVO [BadBajo] bober100 Скачать
1 | 0
Фильмы 2017 [DVDrip, WEB-DLRip, HDrip] (DUB, MVO) [ 1.46 GB ] Берлинский синдром / Berlin Syndrome [2017 BDRip] - [] Twi7ter Скачать
8 | 0
Фильмы 2017 [DVDrip, WEB-DLRip, HDrip] (DUB, MVO) [ 2.05 GB ] Берлинский синдром / Berlin Syndrome [2017 HDRip] killermax2013 Скачать
1 | 0
Фильмы 2017 [DVDrip, WEB-DLRip, HDrip] (DUB, MVO) [ 1.92 GB ] Берлинский синдром / Berlin Syndrome [2017 WEB-DLRip-AVC] bober100 Скачать
1 | 0
Фильмы (WEB-DL 720p, 1080p) [ 3.85 GB ] Берлинский синдром / Berlin Syndrome [2017 WEB-DL 720p] bober100 Скачать
1 | 0
Фильмы 2017 [DVDrip, WEB-DLRip, HDrip] (DUB, MVO) [ 745 MB ] Берлинский синдром / Berlin Syndrome [2017 WEB-DLRip] bober100 Скачать
1 | 0

28-11-2019 20:33  

Отключить всю рекламу на сайте

23-08-2017 16:29 Берлинский синдром Скачать торрент  

Очень жалко потраченного времени, целых с*ка два часа, мать вашу!!! выколите глаза режиссеру, и сценаристу, и продюсеру, и всем кто придумывал и снимал этот фильм!!! Актеров можно не трогать, они свою работу сделали на отлично. pb.wtf



    Дорогой пользователь! Огромная просьба, поблагодарите релизера, оцените раздачу и оставьте свои комментарий, если Вы скачали Берлинский синдром через торрент бесплатно! Внесите свою лепту в развитие PiratBit!
    Комментировать посты могут только пользователи прошедшие не сложную регистрацию
    Показать сообщения:    

    Берлинский синдром через торрент
    Скачать бесплатно Берлинский синдром
    Берлинский синдром скачать торрент
    Берлинский синдром смотреть онлайн
    Cкачать фильм Берлинский синдром бесплатно
    Берлинский синдром скачать торрент в хорошем качестве
    Берлинский синдром смотреть онлайн бесплатно в хорошем качестве


    Вы не можете начинать темы
    Вы не можете отвечать на сообщения
    Вы не можете редактировать свои сообщения
    Вы не можете удалять свои сообщения
    Вы не можете голосовать в опросах
    Вы не можете прикреплять файлы к сообщениям
    Вы можете скачивать файлы