Ссылка на приватное зеркало нашего сайта всего за 1$. Внимание количество ограничено!!!

2 сезон

iTunes

1 сезон

1

iTunes

iTunes

iTunes

1 сезон

RePack

30

ИГРА 18+

pack

ВАЖНО

!!Акция!!

Alien_RageХит недели

RePack

MK11
pack

Забери бонус

RePack

jed

!!Акция!!

Alien_Rage

RePack

fifa19

RePack

Assassins Creed: Odyssey

RePack

NEED FOR SPEED™ PAYBACK

4 сезон

9 сезон

Бесстыжие 9 сезон

Все сериалы

все сериалы на PB.wtf

RePack

FAR CRY 5
  

Охранник / Security (Ален Дерошер) [2017, Боевик, триллер, BDRip 1080p] DUB [iTunes] pb.wtf

Охранник через торрент pb.wtf

Раздают: 2 [ 0 KB/s ]
Размер: 7.71 GB | Добавлен: 3 года 2 мес. назад | Торрент скачан:1578 раз
Скачать  

20-08-2017 21:59 Охранник Скачать торрент  

Охранник / SecurityГод выпуска: 2017
Страна: США
Жанр: Боевик, триллер
Продолжительность: 01:31:52
Перевод: Дубляж iTunes
Субтитры: английские

Режиссер: Ален Дерошер

rating

В ролях:

Бен Кингсли, Антонио Бандерас, Лиам МакИнтайр, Чад Линдберг, Габриэлла Райт, Кунг Ле, Яна Маринова, Марк Смит, Башар Рахаль, Дзиро Ван

Описание:

Эдди Дикон хотел лишь одного: тихой и скучной работы. Он был согласен на все, что угодно, лишь бы скрыться подальше от людской суеты. И Эдди повезло: его взяли на должность ночного охранника в торговом центре. Но уже в первую смену все идет не по плану. Преступники преследуют в ночи девочку, свидетельницу убийства. Для них не помеха даже бронированный полицейский кортеж. Направляемые лидером-психопатом, они действуют без ошибок и не оставляют следов. Девочка просит укрытия у охраны торгового центра. Эта ночь заставит Эдди вспомнить все то, что он так хотел забыть.

Качество: BDRip 1080p
Формат: MKV
Видео кодек: H.264
Аудио кодек: AC3

Видео: MPEG-4 AVC, 1920x804, 11.0 Mbit/s, 23.976 fps
Аудио#1: 48 kHz, AC3, 5.1, 384 Kbps | Дублированный | iTunes | RUS |
Аудио#2: 48 kHz, AC3, 5.1, 640 Kbps | Оригинал | ENG |
скриншот   скриншот   скриншот   скриншот   скриншот  

General
Unique ID : 222038283161795310643279519747073172767 (0xA70B0490C79C749EAA65E22548ECE51F)
Complete name : C:UsersbattiDesktopSecurity.2017.BDRip.1080p.ExKinoRay.mkv
Format : Matroska
Format version : Version 4 / Version 2
File size : 7.71 GiB
Duration : 1 h 31 min
Overall bit rate : 12.0 Mb/s
Encoded date : UTC 2017-08-20 19:14:29
Writing application : mkvmerge v15.0.0 ('Duel with the Devil') 64-bit
Writing library : libebml v1.3.5 + libmatroska v1.4.5

Video
ID : 1
Format : AVC
Format/Info : Advanced Video Codec
Format profile : High@L4.1
Format settings, CABAC : Yes
Format settings, RefFrames : 5 frames
Codec ID : V_MPEG4/ISO/AVC
Duration : 1 h 31 min
Bit rate : 11.0 Mb/s
Width : 1 920 pixels
Height : 804 pixels
Display aspect ratio : 2.40:1
Frame rate mode : Constant
Frame rate : 23.976 (24000/1001) FPS
Color space : YUV
Chroma subsampling : 4:2:0
Bit depth : 8 bits
Scan type : Progressive
Bits/(Pixel*Frame) : 0.297
Stream size : 7.05 GiB (91%)
Writing library : x264 core 148 r2705 3f5ed56
Encoding settings : cabac=1 / ref=5 / deblock=1:-3:-3 / analyse=0x3:0x133 / me=umh / subme=11 / psy=1 / psy_rd=1.05:0.05 / mixed_ref=1 / me_range=32 / chroma_me=1 / trellis=2 / 8x8dct=1 / cqm=0 / deadzone=21,11 / fast_pskip=0 / chroma_qp_offset=-3 / threads=22 / lookahead_threads=4 / sliced_threads=0 / nr=0 / decimate=0 / interlaced=0 / bluray_compat=0 / constrained_intra=0 / bframes=8 / b_pyramid=2 / b_adapt=2 / b_bias=0 / direct=3 / weightb=1 / open_gop=0 / weightp=2 / keyint=240 / keyint_min=23 / scenecut=40 / intra_refresh=0 / rc_lookahead=50 / rc=2pass / mbtree=0 / bitrate=11000 / ratetol=1.0 / qcomp=0.60 / qpmin=0 / qpmax=69 / qpstep=4 / cplxblur=20.0 / qblur=0.5 / vbv_maxrate=50000 / vbv_bufsize=62500 / nal_hrd=none / filler=0 / ip_ratio=1.40 / pb_ratio=1.30 / aq=3:0.80
Language : English
Default : Yes
Forced : No

Audio #1
ID : 2
Format : AC-3
Format/Info : Audio Coding 3
Format settings, Endianness : Big
Codec ID : A_AC3
Duration : 1 h 31 min
Bit rate mode : Constant
Bit rate : 384 kb/s
Channel(s) : 6 channels
Channel positions : Front: L C R, Side: L R, LFE
Sampling rate : 48.0 kHz
Frame rate : 31.250 FPS (1536 SPF)
Bit depth : 16 bits
Compression mode : Lossy
Stream size : 252 MiB (3%)
Title : iTunes
Language : Russian
Service kind : Complete Main
Default : Yes
Forced : No

Audio #2
ID : 3
Format : AC-3
Format/Info : Audio Coding 3
Format settings, Endianness : Big
Codec ID : A_AC3
Duration : 1 h 31 min
Bit rate mode : Constant
Bit rate : 640 kb/s
Channel(s) : 6 channels
Channel positions : Front: L C R, Side: L R, LFE
Sampling rate : 48.0 kHz
Frame rate : 31.250 FPS (1536 SPF)
Bit depth : 16 bits
Compression mode : Lossy
Stream size : 421 MiB (5%)
Title : Original
Language : English
Service kind : Complete Main
Default : No
Forced : No

Text #1
ID : 4
Format : UTF-8
Codec ID : S_TEXT/UTF8
Codec ID/Info : UTF-8 Plain Text
Duration : 1 h 25 min
Bit rate : 43 b/s
Count of elements : 1018
Stream size : 27.4 KiB (0%)
Title : Full
Language : English
Default : No
Forced : No

Text #2
ID : 5
Format : UTF-8
Codec ID : S_TEXT/UTF8
Codec ID/Info : UTF-8 Plain Text
Duration : 1 h 27 min
Bit rate : 53 b/s
Count of elements : 1099
Stream size : 34.2 KiB (0%)
Title : SDH Colored
Language : English
Default : No
Forced : No

Menu
00:00:00.000 : en:00:00:00.000
00:17:03.439 : en:00:17:03.439
00:29:17.255 : en:00:29:17.255
00:40:00.189 : en:00:40:00.189
00:53:50.018 : en:00:53:50.018
01:06:05.628 : en:01:06:05.628
01:18:38.714 : en:01:18:38.714
01:27:50.474 : en:01:27:50.474

pb.wtf



Скачать Охранник через торрент http://s010.radikal.ru/i312/1708/ee/650fe9c9c6ce.jpg Скачать фильм Охранник через торрент бесплантно в хорошем качестве Описание: Эдди Дикон хотел лишь одного: тихой и скучной работы. Он был согласен на все, что угодно, лишь бы скрыться подальше от людской ... 9.8 10 30
Info! Золотая раздача, скачанное не засчитывается.
Торрент: Зарегистрирован [2017-08-20 21:59] · скачан: 1 578 раз
Статус: √ проверено
Размер: 7.71 GB
Как cкачать? Как скачать Охранник через торрент | qTorrent

% Раздел Тема Автор DL S | L
Фильмы 2017 [DVDrip, WEB-DLRip, HDrip] (DUB, MVO) [ 746 MB ] Охранник / Security [2017 BDRip] bober100 Скачать
1 | 0
Фильмы 2017 [DVDrip, WEB-DLRip, HDrip] (DUB, MVO) [ 1.42 GB ] Охранник / Security [2017 BDRip] DUB [Tunes] bober100 Скачать
2 | 0
Фильмы [HD 720p, 1080p] (Хороший звук DUB, MVO) [ 4.18 GB ] Охранник / Security [2017 BDRip 720p] + ENG + Sub Loc387 Скачать
1 | 0
Фильмы 2017 [DVDrip, WEB-DLRip, HDrip] (DUB, MVO) [ 1.42 GB ] Охранник / Security [2017 BDRip] - Twi7ter Скачать
1 | 0
Фильмы 2017 [DVDrip, WEB-DLRip, HDrip] (DUB, MVO) [ 1.56 GB ] Охранник / Security [2017 BDRip-AVC] bober100 Скачать
1 | 0
Фильмы (Blu-ray, BD-Remux, HDDVD) [ 24.19 GB ] Охранник / Security [2017 Blu-ray 1080p] bober100 Скачать
1 | 1
Фильмы (Blu-ray, BD-Remux, HDDVD) [ 21.79 GB ] Охранник / Security [2017 BD Remux 1080p] bober100 Скачать
1 | 0

28-11-2019 20:33  

Отключить всю рекламу на сайте

24-08-2017 09:19 Охранник Скачать торрент  

Спасибо за фильм.pb.wtf



27-08-2017 18:39 Охранник Скачать торрент  

Как фильм?pb.wtf



    Дорогой пользователь! Огромная просьба, поблагодарите релизера, оцените раздачу и оставьте свои комментарий, если Вы скачали Охранник через торрент бесплатно! Внесите свою лепту в развитие PiratBit!
    Комментировать посты могут только пользователи прошедшие не сложную регистрацию
    Показать сообщения:    

    Охранник через торрент
    Скачать бесплатно Охранник
    Охранник скачать торрент
    Охранник смотреть онлайн
    Cкачать фильм Охранник бесплатно
    Охранник скачать торрент в хорошем качестве
    Охранник смотреть онлайн бесплатно в хорошем качестве


    Вы не можете начинать темы
    Вы не можете отвечать на сообщения
    Вы не можете редактировать свои сообщения
    Вы не можете удалять свои сообщения
    Вы не можете голосовать в опросах
    Вы не можете прикреплять файлы к сообщениям
    Вы можете скачивать файлы