Ссылка на приватное зеркало нашего сайта всего за 1$. Внимание количество ограничено!!!

2 сезон

iTunes

1 сезон

1

iTunes

iTunes

iTunes

1 сезон

RePack

30

ИГРА 18+

pack

ВАЖНО

!!Акция!!

Alien_RageХит недели

RePack

MK11
pack

Забери бонус

RePack

jed

!!Акция!!

Alien_Rage

RePack

fifa19

RePack

Assassins Creed: Odyssey

RePack

NEED FOR SPEED™ PAYBACK

4 сезон

9 сезон

Бесстыжие 9 сезон

Все сериалы

все сериалы на PB.wtf

RePack

FAR CRY 5
  

Охранник / Security (Ален Дерошер) [2017, боевик, триллер, BDRip 720p] DUB [iTunes] + ENG + Sub (eng) pb.wtf

Охранник через торрент pb.wtf

Размер: 4.18 GB | Добавлен: 3 года 2 мес. назад | Торрент скачан:916 раз
Скачать  

21-08-2017 02:00 Охранник Скачать торрент  

Охранник / Security (2017) BDRip 720p
«Пришло время вспомнить, на что ты способен»
Год выпуска: 2017
Страна: США
Производство: Nu Boyana Film Studios, Nu-Image Films,Security Productions
Жанр: Боевик, триллер
Продолжительность: 01:31:52

Режиссёр: Ален Дерошер
В ролях: Антонио Бандерас, Бен Кингсли, Лиам МакИнтайр, Габриэлла Райт, Чэд Линдберг, Яна Маринова, Кунг Ле, Марк Смит, Дзиро Ван, Katherine de la Rocha

Перевод: Профессиональный (полное дублирование) [iTunes] + Оригинал (английский)
Субтитры: Английские

Описание: Эдди Дикон хотел лишь одного: тихой и скучной работы. Он был согласен на все, что угодно, лишь бы скрыться подальше от людской суеты. И Эдди повезло: его взяли на должность ночного охранника в торговом центре. Но уже в первую смену все идет не по плану.

Преступники преследуют в ночи девочку, свидетельницу убийства. Для них не помеха даже бронированный полицейский кортеж. Направляемые лидером-психопатом, они действуют без ошибок и не оставляют следов. Девочка просит укрытия у охраны торгового центра.

Эта ночь заставит Эдди вспомнить все то, что он так хотел забыть.



Формат: MKV
Качество: BDRip 720p

Видео: 1280x536 (2.40:1), 23.976 fps, MPEG-4 AVC ~ 5500 kbps avg, 0.334 bit/pixel
Аудио№1: AC3, 48 kHz, 2 ch, ~ 384.00 kbps avg | Профессиональный (полное дублирование) [iTunes]
Аудио№2: AC3, 48 kHz, 2 ch, ~ 640.00 kbps avg | + Оригинал (английский)

Дата премьеры (мир): 4 марта 2017
Дата премьеры (РФ): 3 августа 2017
General
Unique ID : 196560480591741808442248877209371197405 (0x93E02BEA678A7F2EB60658FD21EABFDD)
Complete name : Security.2017.BDRip.720p.ExKinoRay.mkv
Format : Matroska
Format version : Version 4 / Version 2
File size : 4.18 GiB
Duration : 1 h 31 min
Overall bit rate : 6 519 kb/s
Encoded date : UTC 2017-08-20 19:18:12
Writing application : mkvmerge v15.0.0 ('Duel with the Devil') 64-bit
Writing library : libebml v1.3.5 + libmatroska v1.4.5

Video
ID : 1
Format : AVC
Format/Info : Advanced Video Codec
Format profile : High@L4.1
Format settings, CABAC : Yes
Format settings, RefFrames : 12 frames
Codec ID : V_MPEG4/ISO/AVC
Duration : 1 h 31 min
Bit rate : 5 500 kb/s
Width : 1 280 pixels
Height : 536 pixels
Display aspect ratio : 2.40:1
Frame rate mode : Constant
Frame rate : 23.976 (24000/1001) FPS
Color space : YUV
Chroma subsampling : 4:2:0
Bit depth : 8 bits
Scan type : Progressive
Bits/(Pixel*Frame) : 0.334
Stream size : 3.53 GiB (84%)
Writing library : x264 core 148 r2705 3f5ed56
Encoding settings : cabac=1 / ref=12 / deblock=1:-3:-3 / analyse=0x3:0x133 / me=umh / subme=11 / psy=1 / psy_rd=1.05:0.05 / mixed_ref=1 / me_range=32 / chroma_me=1 / trellis=2 / 8x8dct=1 / cqm=0 / deadzone=21,11 / fast_pskip=0 / chroma_qp_offset=-3 / threads=22 / lookahead_threads=4 / sliced_threads=0 / nr=0 / decimate=0 / interlaced=0 / bluray_compat=0 / constrained_intra=0 / bframes=8 / b_pyramid=2 / b_adapt=2 / b_bias=0 / direct=3 / weightb=1 / open_gop=0 / weightp=2 / keyint=240 / keyint_min=23 / scenecut=40 / intra_refresh=0 / rc_lookahead=50 / rc=2pass / mbtree=0 / bitrate=5500 / ratetol=1.0 / qcomp=0.60 / qpmin=0 / qpmax=69 / qpstep=4 / cplxblur=20.0 / qblur=0.5 / vbv_maxrate=50000 / vbv_bufsize=62500 / nal_hrd=none / filler=0 / ip_ratio=1.40 / pb_ratio=1.30 / aq=3:0.80
Language : English
Default : Yes
Forced : No

Audio #1
ID : 2
Format : AC-3
Format/Info : Audio Coding 3
Format settings, Endianness : Big
Codec ID : A_AC3
Duration : 1 h 31 min
Bit rate mode : Constant
Bit rate : 384 kb/s
Channel(s) : 6 channels
Channel positions : Front: L C R, Side: L R, LFE
Sampling rate : 48.0 kHz
Frame rate : 31.250 FPS (1536 SPF)
Bit depth : 16 bits
Compression mode : Lossy
Stream size : 252 MiB (6%)
Title : iTunes
Language : Russian
Service kind : Complete Main
Default : Yes
Forced : No

Audio #2
ID : 3
Format : AC-3
Format/Info : Audio Coding 3
Format settings, Endianness : Big
Codec ID : A_AC3
Duration : 1 h 31 min
Bit rate mode : Constant
Bit rate : 640 kb/s
Channel(s) : 6 channels
Channel positions : Front: L C R, Side: L R, LFE
Sampling rate : 48.0 kHz
Frame rate : 31.250 FPS (1536 SPF)
Bit depth : 16 bits
Compression mode : Lossy
Stream size : 421 MiB (10%)
Title : Original
Language : English
Service kind : Complete Main
Default : No
Forced : No

Text #1
ID : 4
Format : UTF-8
Codec ID : S_TEXT/UTF8
Codec ID/Info : UTF-8 Plain Text
Duration : 1 h 25 min
Bit rate : 43 b/s
Count of elements : 1018
Stream size : 27.4 KiB (0%)
Title : Full
Language : English
Default : No
Forced : No

Text #2
ID : 5
Format : UTF-8
Codec ID : S_TEXT/UTF8
Codec ID/Info : UTF-8 Plain Text
Duration : 1 h 27 min
Bit rate : 53 b/s
Count of elements : 1099
Stream size : 34.2 KiB (0%)
Title : SDH Colored
Language : English
Default : No
Forced : No

Menu
00:00:00.000 : en:00:00:00.000
00:17:03.439 : en:00:17:03.439
00:29:17.255 : en:00:29:17.255
00:40:00.189 : en:00:40:00.189
00:53:50.018 : en:00:53:50.018
01:06:05.628 : en:01:06:05.628
01:18:38.714 : en:01:18:38.714
01:27:50.474 : en:01:27:50.474
скриншот  скриншот  скриншот  скриншот  скриншот  
pb.wtf



Скачать Охранник через торрент http://i96.fastpic.ru/big/2017/0806/73/efad29e592523b54767bf0c121743673.jpg Скачать фильм Охранник через торрент бесплантно в хорошем качестве Описание: Эдди Дикон хотел лишь одного: тихой и скучной работы. Он был согласен на все, что угодно, лишь бы скрыться подальше от людской ... 9.9 10 19
Info! Золотая раздача, скачанное не засчитывается.
Торрент: Зарегистрирован [2017-08-21 02:00] · скачан: 916 раз
Статус: √ проверено
Размер: 4.18 GB
Как cкачать? Как скачать Охранник через торрент | qTorrent

% Раздел Тема Автор DL S | L
Фильмы 2017 [DVDrip, WEB-DLRip, HDrip] (DUB, MVO) [ 746 MB ] Охранник / Security [2017 BDRip] bober100 Скачать
1 | 0
Фильмы 2017 [DVDrip, WEB-DLRip, HDrip] (DUB, MVO) [ 1.42 GB ] Охранник / Security [2017 BDRip] DUB [Tunes] bober100 Скачать
3 | 0
Фильмы 2017 [DVDrip, WEB-DLRip, HDrip] (DUB, MVO) [ 1.42 GB ] Охранник / Security [2017 BDRip] - Twi7ter Скачать
1 | 0
Фильмы [HD 720p, 1080p] (Хороший звук DUB, MVO) [ 7.71 GB ] Охранник / Security [2017 BDRip 1080p] bober100 Скачать
2 | 0
Фильмы 2017 [DVDrip, WEB-DLRip, HDrip] (DUB, MVO) [ 1.56 GB ] Охранник / Security [2017 BDRip-AVC] bober100 Скачать
1 | 0
Фильмы (Blu-ray, BD-Remux, HDDVD) [ 24.19 GB ] Охранник / Security [2017 Blu-ray 1080p] bober100 Скачать
1 | 0
Фильмы (Blu-ray, BD-Remux, HDDVD) [ 21.79 GB ] Охранник / Security [2017 BD Remux 1080p] bober100 Скачать
1 | 0

28-11-2019 20:33  

Отключить всю рекламу на сайте

03-09-2017 14:41 Охранник Скачать торрент  

На любителя..pb.wtf



    Дорогой пользователь! Огромная просьба, поблагодарите релизера, оцените раздачу и оставьте свои комментарий, если Вы скачали Охранник через торрент бесплатно! Внесите свою лепту в развитие PiratBit!
    Комментировать посты могут только пользователи прошедшие не сложную регистрацию
    Показать сообщения:    

    Охранник через торрент
    Скачать бесплатно Охранник
    Охранник скачать торрент
    Охранник смотреть онлайн
    Cкачать фильм Охранник бесплатно
    Охранник скачать торрент в хорошем качестве
    Охранник смотреть онлайн бесплатно в хорошем качестве


    Вы не можете начинать темы
    Вы не можете отвечать на сообщения
    Вы не можете редактировать свои сообщения
    Вы не можете удалять свои сообщения
    Вы не можете голосовать в опросах
    Вы не можете прикреплять файлы к сообщениям
    Вы можете скачивать файлы