2 сезон

iTunes

MVO

1

2 сезон

iTunes

iTunes

1 сезон

RePack

30

Ultimate

ВАЖНО

ИГРА 18+

pack

RePack

MK11
pack

Легкие деньги

RePack

jed

RePack

fifa19

RePack

RDR2

RePack

NEED FOR SPEED™ PAYBACK

4 сезон

9 сезон

Бесстыжие 9 сезон

Все сериалы

все сериалы на PB.wtf

RePack

FAR CRY 5

Anonymous, доброе утро, мы не успеваем собрать деньги на оплату серверов за декабрь и январь, помогите нам пожалуйста в это трудное время. В качестве благодарности мы отключим Вам всю рекламу на сайте (укажите свой ник в строку Ваше имя)!

×
  
Magnet ссылка

Охранник / Security (Ален Дерошер) [2017, Боевик, триллер, BDRip-AVC] DUB [iTunes] pb.wtf

Охранник через торрент pb.wtf

Раздают: 1 [ 0 KB/s ]
Размер: 1.56 GB | Добавлен: 3 года 5 мес. назад | Торрент скачан:522 раза
Скачать  

21-08-2017 04:12 Охранник Скачать торрент  

Охранник / SecurityГод выпуска: 2017
Страна: США
Жанр: Боевик, триллер
Продолжительность: 01:31:52
Перевод: Дубляж iTunes
Субтитры: английские

Режиссер: Ален Дерошер

rating

В ролях:

Бен Кингсли, Антонио Бандерас, Лиам МакИнтайр, Чад Линдберг, Габриэлла Райт, Кунг Ле, Яна Маринова, Марк Смит, Башар Рахаль, Дзиро Ван

Описание:

Эдди Дикон хотел лишь одного: тихой и скучной работы. Он был согласен на все, что угодно, лишь бы скрыться подальше от людской суеты. И Эдди повезло: его взяли на должность ночного охранника в торговом центре. Но уже в первую смену все идет не по плану. Преступники преследуют в ночи девочку, свидетельницу убийства. Для них не помеха даже бронированный полицейский кортеж. Направляемые лидером-психопатом, они действуют без ошибок и не оставляют следов. Девочка просит укрытия у охраны торгового центра. Эта ночь заставит Эдди вспомнить все то, что он так хотел забыть.

Качество: BDRip-AVC
Формат: MKV
Видео кодек: H.264
Аудио кодек: AC3

Видео: 1024x432 (16:9), 23,976 fps, x264 ~1592 kbps avg, 0.150 bit/pixel
Аудио#1: 48 kHz, AC3 Dolby Digital, 3/2 (L,C,R,l,r) + LFE ch, ~384.00 kbps avg | RUS (iTunes)
Аудио#2: 48 kHz, AC3 Dolby Digital, 3/2 (L,C,R,l,r) + LFE ch, ~448.00 kbps avg | ENG
скриншот   скриншот   скриншот   скриншот   скриншот  

Общее
Уникальный идентификатор : 231432122171682732533128566388029080398 (0xAE1C34964C13A901ABC52BF7573B434E)
Полное имя : D:Security.2017.BDRip(AVC).OlLanDGroup.mkv
Формат : Matroska
Версия формата : Version 2
Размер файла : 1,56 Гбайт
Продолжительность : 1 ч. 31 м.
Общий поток : 2426 Кбит/сек
Название фильма : Security.2017 #TorpedoUK#
Дата кодирования : UTC 2017-08-21 02:27:52
Программа кодирования : mkvmerge v7.8.0 ('River Man') 32bit built on Apr 3 2015 12:11:22
Библиотека кодирования : libebml v1.3.1 + libmatroska v1.4.2

Видео
Идентификатор : 1
Формат : AVC
Формат/Информация : Advanced Video Codec
Профиль формата : High@L4.1
Параметр CABAC формата : Да
Параметр ReFrames формата : 10 кадров
Идентификатор кодека : V_MPEG4/ISO/AVC
Продолжительность : 1 ч. 31 м.
Битрейт : 1593 Кбит/сек
Ширина : 1024 пикселя
Высота : 432 пикселя
Соотношение сторон : 2,40:1
Режим частоты кадров : Постоянный
Частота кадров : 23,976 (24000/1001) кадра/сек
Цветовое пространство : YUV
Субдискретизация насыщенности : 4:2:0
Битовая глубина : 8 бит
Тип развёртки : Прогрессивная
Бит/(Пиксели*Кадры) : 0.150
Размер потока : 1016 Мбайт (64%)
Библиотека кодирования : x264 core 146 r2538 121396c
Настройки программы : cabac=1 / ref=10 / deblock=1:-3:-3 / analyse=0x3:0x133 / me=umh / subme=11 / psy=1 / psy_rd=1.00:0.07 / mixed_ref=1 / me_range=48 / chroma_me=1 / trellis=2 / 8x8dct=1 / cqm=0 / deadzone=21,11 / fast_pskip=0 / chroma_qp_offset=-3 / threads=6 / lookahead_threads=1 / sliced_threads=0 / nr=0 / decimate=0 / interlaced=0 / bluray_compat=0 / constrained_intra=0 / bframes=10 / b_pyramid=2 / b_adapt=2 / b_bias=0 / direct=3 / weightb=1 / open_gop=0 / weightp=2 / keyint=240 / keyint_min=23 / scenecut=40 / intra_refresh=0 / rc_lookahead=40 / rc=2pass / mbtree=0 / bitrate=1593 / ratetol=1.0 / qcomp=0.60 / qpmin=0 / qpmax=69 / qpstep=4 / cplxblur=20.0 / qblur=0.5 / vbv_maxrate=50000 / vbv_bufsize=62500 / nal_hrd=none / filler=0 / ip_ratio=1.40 / pb_ratio=1.30 / aq=1:1.00
Язык : English
Default : Да
Forced : Нет

Аудио #1
Идентификатор : 2
Формат : AC-3
Формат/Информация : Audio Coding 3
Расширение режима : CM (complete main)
Параметр Endianness формата : Big
Идентификатор кодека : A_AC3
Продолжительность : 1 ч. 31 м.
Вид битрейта : Постоянный
Битрейт : 384 Кбит/сек
Каналы : 6 каналов
Расположение каналов : Front: L C R, Side: L R, LFE
Частота : 48,0 КГц
Частота кадров : 31,250 кадров/сек (1536 spf)
Битовая глубина : 16 бит
Метод сжатия : С потерями
Размер потока : 252 Мбайт (16%)
Заголовок : iTunes
Язык : Russian
Default : Да
Forced : Нет

Аудио #2
Идентификатор : 3
Формат : AC-3
Формат/Информация : Audio Coding 3
Расширение режима : CM (complete main)
Параметр Endianness формата : Big
Идентификатор кодека : A_AC3
Продолжительность : 1 ч. 31 м.
Вид битрейта : Постоянный
Битрейт : 448 Кбит/сек
Каналы : 6 каналов
Расположение каналов : Front: L C R, Side: L R, LFE
Частота : 48,0 КГц
Частота кадров : 31,250 кадров/сек (1536 spf)
Битовая глубина : 16 бит
Метод сжатия : С потерями
Размер потока : 294 Мбайт (18%)
Заголовок : Original
Язык : English
Default : Нет
Forced : Нет

Текст
Идентификатор : 4
Формат : UTF-8
Идентификатор кодека : S_TEXT/UTF8
Идентификатор кодека/Информация : UTF-8 Plain Text
Заголовок : SDH
Язык : English
Default : Нет
Forced : Нет

Меню
00:00:00.000 : en:Chapter 1
00:17:03.439 : en:Chapter 2
00:29:17.255 : en:Chapter 3
00:40:00.189 : en:Chapter 4
00:53:50.018 : en:Chapter 5
01:06:05.628 : en:Chapter 6
01:18:38.714 : en:Chapter 7
01:27:50.474 : en:Chapter 8

pb.wtf



Скачать Охранник через торрент http://lostpix.com/img/2017-08/21/7s1n6fghy6ndl9nv57kn7ana0.jpg Скачать фильм Охранник через торрент бесплантно в хорошем качестве Описание: Эдди Дикон хотел лишь одного: тихой и скучной работы. Он был согласен на все, что угодно, лишь бы скрыться подальше от людской ... 9.6 10 12
Торрент: Зарегистрирован [2017-08-21 04:12] · скачан: 522 раз
Статус: √ проверено
Размер: 1.56 GB
Как cкачать? Как скачать Охранник через торрент | UTorrent

% Раздел Тема Автор DL S | L
Фильмы 2017 [DVDrip, WEB-DLRip, HDrip] (DUB, MVO) [ 746 MB ] Охранник / Security [2017 BDRip] bober100 Скачать
1 | 0
Фильмы 2017 [DVDrip, WEB-DLRip, HDrip] (DUB, MVO) [ 1.42 GB ] Охранник / Security [2017 BDRip] DUB [Tunes] bober100 Скачать
2 | 0
Фильмы [HD 720p, 1080p] (Хороший звук DUB, MVO) [ 4.18 GB ] Охранник / Security [2017 BDRip 720p] + ENG + Sub Loc387 Скачать
1 | 0
Фильмы 2017 [DVDrip, WEB-DLRip, HDrip] (DUB, MVO) [ 1.42 GB ] Охранник / Security [2017 BDRip] - Twi7ter Скачать
2 | 0
Фильмы [HD 720p, 1080p] (Хороший звук DUB, MVO) [ 7.71 GB ] Охранник / Security [2017 BDRip 1080p] bober100 Скачать
1 | 0
Фильмы (Blu-ray, BD-Remux, HDDVD) [ 24.19 GB ] Охранник / Security [2017 Blu-ray 1080p] bober100 Скачать
1 | 0
Фильмы (Blu-ray, BD-Remux, HDDVD) [ 21.79 GB ] Охранник / Security [2017 BD Remux 1080p] bober100 Скачать
1 | 0

28-11-2019 20:33  

Отключить всю рекламу на сайте

26-08-2017 19:36 Охранник Скачать торрент  

Боже мой какой банальный сюжет и фильм в целом, но всё равно лучше чем русское кино. За раздачу спасибо, скоротал вечерок.pb.wtf



    Дорогой пользователь! Огромная просьба, поблагодарите релизера, оцените раздачу и оставьте свои комментарий, если Вы скачали Охранник через торрент бесплатно! Внесите свою лепту в развитие PiratBit!
    Комментировать посты могут только пользователи прошедшие не сложную регистрацию
    Показать сообщения:    

    Охранник через торрент
    Скачать бесплатно Охранник
    Охранник скачать торрент
    Охранник смотреть онлайн
    Cкачать фильм Охранник бесплатно
    Охранник скачать торрент в хорошем качестве
    Охранник смотреть онлайн бесплатно в хорошем качестве


    Вы не можете начинать темы
    Вы не можете отвечать на сообщения
    Вы не можете редактировать свои сообщения
    Вы не можете удалять свои сообщения
    Вы не можете голосовать в опросах
    Вы не можете прикреплять файлы к сообщениям
    Вы можете скачивать файлы