2 сезон

iTunes

MVO

1

2 сезон

iTunes

iTunes

1 сезон

RePack

30

Новинка

ВАЖНО

ИГРА 18+

pack

RePack

MK11
pack

Легкие деньги

RePack

jed

RePack

fifa19

RePack

RDR2

RePack

NEED FOR SPEED™ PAYBACK

4 сезон

9 сезон

Бесстыжие 9 сезон

Все сериалы

все сериалы на PB.wtf

RePack

FAR CRY 5

Anonymous, добрый вечер, мы не успеваем собрать деньги на оплату серверов за декабрь и январь, помогите нам пожалуйста в это трудное время. В качестве благодарности мы отключим Вам всю рекламу на сайте (укажите свой ник в строку Ваше имя)!

×
  
Magnet ссылка

Берлинский синдром / Berlin Syndrome (Кейт Шортланд) [2017, Триллер, WEB-DLRip-AVC] DUB [iTunes] pb.wtf

Берлинский синдром через торрент pb.wtf

Размер: 1.92 GB | Добавлен: 3 года 4 мес. назад | Торрент скачан:1740 раз
Скачать  

21-08-2017 04:19 Берлинский синдром Скачать торрент  

Берлинский синдром / Berlin SyndromeГод выпуска: 2017
Страна: Австралия, Германия
Жанр: Триллер
Продолжительность: 01:55:21
Перевод: Дубляж iTunes
Субтитры: английские

Режиссер: Кейт Шортланд

rating

В ролях:

Тереза Палмер, Макс Римельт, Люси Арон, Сем Тункай, Маттиас Хабих, Эмма Бадинг, Майя Абсберг, Морган Ферру, Кристина Костив, Чарли Торн

Описание:

Во время отпуска в Берлине Клэр знакомится с обаятельным Энди и между ними сразу возникает влечение. После совместной прогулки по городу они проводят ночь вместе, но то, что на первый взгляд кажется началом бурного романа, неожиданно принимает зловещий оборот.

Качество: WEB-DLRip-AVC
Формат: MKV
Видео кодек: H.264
Аудио кодек: AC3

Видео: 1024x424 (16:9), 23.976 fps, x264 ~1604 kbps avg, 0.162 bit/pixel
Аудио#1: 48 kHz, AC3 Dolby Digital, 3/2 (L,C,R,l,r) + LFE ch, ~384.00 kbps avg | RUS (iTunes)
Аудио#2: 48 kHz, AC3 Dolby Digital, 3/2 (L,C,R,l,r) + LFE ch, ~384.00 kbps avg | ENG
скриншот   скриншот   скриншот   скриншот   скриншот  

Общее
Уникальный идентификатор : 199518042600008028525474997243931121405 (0x9619C6FB1807B62093D611D3F361D6FD)
Полное имя : D:Berlin.Syndrome.2017.WEB-DLRip(AVC).OlLanDGroup.mkv
Формат : Matroska
Версия формата : Version 2
Размер файла : 1,92 Гбайт
Продолжительность : 1 ч. 55 м.
Общий поток : 2373 Кбит/сек
Название фильма : Berlin.Syndrome.2017 #TorpedoUK#
Дата кодирования : UTC 2017-08-21 02:45:18
Программа кодирования : mkvmerge v7.8.0 ('River Man') 32bit built on Apr 3 2015 12:11:22
Библиотека кодирования : libebml v1.3.1 + libmatroska v1.4.2
Обложка : Yes
Attachments : cover.jpg / cover_land.jpg / small_cover.jpg / small_cover_land.jpg

Видео
Идентификатор : 1
Формат : AVC
Формат/Информация : Advanced Video Codec
Профиль формата : High@L4.1
Параметр CABAC формата : Да
Параметр ReFrames формата : 10 кадров
Идентификатор кодека : V_MPEG4/ISO/AVC
Продолжительность : 1 ч. 55 м.
Битрейт : 1604 Кбит/сек
Ширина : 1024 пикселя
Высота : 424 пикселя
Соотношение сторон : 2,40:1
Режим частоты кадров : Постоянный
Частота кадров : 24,000 кадра/сек
Цветовое пространство : YUV
Субдискретизация насыщенности : 4:2:0
Битовая глубина : 8 бит
Тип развёртки : Прогрессивная
Бит/(Пиксели*Кадры) : 0.154
Размер потока : 1,26 Гбайт (66%)
Библиотека кодирования : x264 core 146 r2538 121396c
Настройки программы : cabac=1 / ref=10 / deblock=1:-3:-3 / analyse=0x3:0x133 / me=umh / subme=11 / psy=1 / psy_rd=1.00:0.07 / mixed_ref=1 / me_range=48 / chroma_me=1 / trellis=2 / 8x8dct=1 / cqm=0 / deadzone=21,11 / fast_pskip=0 / chroma_qp_offset=-3 / threads=6 / lookahead_threads=1 / sliced_threads=0 / nr=0 / decimate=0 / interlaced=0 / bluray_compat=0 / constrained_intra=0 / bframes=10 / b_pyramid=2 / b_adapt=2 / b_bias=0 / direct=3 / weightb=1 / open_gop=0 / weightp=2 / keyint=240 / keyint_min=24 / scenecut=40 / intra_refresh=0 / rc_lookahead=40 / rc=2pass / mbtree=0 / bitrate=1604 / ratetol=1.0 / qcomp=0.60 / qpmin=0 / qpmax=69 / qpstep=4 / cplxblur=20.0 / qblur=0.5 / vbv_maxrate=50000 / vbv_bufsize=62500 / nal_hrd=none / filler=0 / ip_ratio=1.40 / pb_ratio=1.30 / aq=1:1.00
Язык : English
Default : Да
Forced : Нет

Аудио #1
Идентификатор : 2
Формат : AC-3
Формат/Информация : Audio Coding 3
Расширение режима : CM (complete main)
Параметр Endianness формата : Big
Идентификатор кодека : A_AC3
Продолжительность : 1 ч. 55 м.
Вид битрейта : Постоянный
Битрейт : 384 Кбит/сек
Каналы : 6 каналов
Расположение каналов : Front: L C R, Side: L R, LFE
Частота : 48,0 КГц
Частота кадров : 31,250 кадров/сек (1536 spf)
Битовая глубина : 16 бит
Метод сжатия : С потерями
Размер потока : 318 Мбайт (16%)
Заголовок : iTunes
Язык : Russian
Default : Нет
Forced : Нет

Аудио #2
Идентификатор : 3
Формат : AC-3
Формат/Информация : Audio Coding 3
Расширение режима : CM (complete main)
Параметр Endianness формата : Big
Идентификатор кодека : A_AC3
Продолжительность : 1 ч. 55 м.
Вид битрейта : Постоянный
Битрейт : 384 Кбит/сек
Каналы : 6 каналов
Расположение каналов : Front: L C R, Side: L R, LFE
Частота : 48,0 КГц
Частота кадров : 31,250 кадров/сек (1536 spf)
Битовая глубина : 16 бит
Метод сжатия : С потерями
Размер потока : 318 Мбайт (16%)
Заголовок : Original
Язык : English
Default : Нет
Forced : Нет

Текст #1
Идентификатор : 4
Формат : UTF-8
Идентификатор кодека : S_TEXT/UTF8
Идентификатор кодека/Информация : UTF-8 Plain Text
Заголовок : FORCED
Язык : English
Default : Да
Forced : Нет

Текст #2
Идентификатор : 5
Формат : UTF-8
Идентификатор кодека : S_TEXT/UTF8
Идентификатор кодека/Информация : UTF-8 Plain Text
Заголовок : Full
Язык : English
Default : Нет
Forced : Нет

Меню
00:00:00.000 : en:Opening Sequence
00:07:13.000 : en:In Search Of Something
00:14:44.000 : en:Empty Places
00:21:42.000 : en:Locked In
00:30:21.000 : en:Mine
00:36:10.000 : en:What Is Going On?
00:43:56.000 : en:There's Nowhere To Go
00:50:24.000 : en:You Have Me
00:58:28.000 : en:Who Was That?
01:05:21.000 : en:Left Alone
01:12:30.000 : en:My Father's Dead
01:19:55.000 : en:Do You Like It?
01:28:52.000 : en:New Year's Eve
01:36:57.000 : en:Pack Your Things
01:43:09.000 : en:Escape
01:50:48.000 : en:End Credits

pb.wtf



Скачать Берлинский синдром через торрент http://lostpix.com/img/2017-08/21/yhvif0xpc1g2qjy3iyvpdmyw6.jpg Скачать фильм Берлинский синдром через торрент бесплантно в хорошем качестве Описание: Во время отпуска в Берлине Клэр знакомится с обаятельным Энди и между ними сразу возникает влечение. После совместной прогулки по ... 9.3 10 32
Info! Золотая раздача, скачанное не засчитывается.
Торрент: Зарегистрирован [2017-08-21 04:19] · скачан: 1 740 раз
Статус: √ проверено
Размер: 1.92 GB
Как cкачать? Как скачать Берлинский синдром через торрент | UTorrent

% Раздел Тема Автор DL S | L
Фильмы 2017 [DVDrip, WEB-DLRip, HDrip] (DUB, MVO) [ 2.18 GB ] Берлинский синдром / Berlin Syndrome [2017 BDRip] - [] Twi7ter Скачать
8 | 0
Фильмы (Blu-ray, BD-Remux, HDDVD) [ 15.13 GB ] Берлинский синдром / Berlin Syndrome [2017 BD Remux 1080p] DUB+AVO [BadBajo] bober100 Скачать
1 | 0
Фильмы 2017 [DVDrip, WEB-DLRip, HDrip] (DUB, MVO) [ 1.46 GB ] Берлинский синдром / Berlin Syndrome [2017 BDRip] - [] Twi7ter Скачать
3 | 0
Фильмы 2017 [DVDrip, WEB-DLRip, HDrip] (DUB, MVO) [ 2.05 GB ] Берлинский синдром / Berlin Syndrome [2017 HDRip] killermax2013 Скачать
1 | 0
Фильмы (WEB-DL 720p, 1080p) [ 4.31 GB ] Берлинский синдром / Berlin Syndrome [2017 WEB-DL 1080p] bober100 Скачать
1 | 0
Фильмы (WEB-DL 720p, 1080p) [ 3.85 GB ] Берлинский синдром / Berlin Syndrome [2017 WEB-DL 720p] bober100 Скачать
1 | 0
Фильмы 2017 [DVDrip, WEB-DLRip, HDrip] (DUB, MVO) [ 745 MB ] Берлинский синдром / Berlin Syndrome [2017 WEB-DLRip] bober100 Скачать
1 | 0

28-11-2019 20:33  

Отключить всю рекламу на сайте

25-08-2017 18:11 Берлинский синдром Скачать торрент  

как больше тупой рекламы как замутить больше 600р, не кто не оставляет своих отзывовpb.wtf



27-08-2017 12:52 Берлинский синдром Скачать торрент  

я посмотрел этот фильм от и до. весь фильм хотелось порубать на куски этого (удалено) учителя!pb.wtf



  мат, выдал -Lexx-
    Дорогой пользователь! Огромная просьба, поблагодарите релизера, оцените раздачу и оставьте свои комментарий, если Вы скачали Берлинский синдром через торрент бесплатно! Внесите свою лепту в развитие PiratBit!
    Комментировать посты могут только пользователи прошедшие не сложную регистрацию
    Показать сообщения:    

    Берлинский синдром через торрент
    Скачать бесплатно Берлинский синдром
    Берлинский синдром скачать торрент
    Берлинский синдром смотреть онлайн
    Cкачать фильм Берлинский синдром бесплатно
    Берлинский синдром скачать торрент в хорошем качестве
    Берлинский синдром смотреть онлайн бесплатно в хорошем качестве


    Вы не можете начинать темы
    Вы не можете отвечать на сообщения
    Вы не можете редактировать свои сообщения
    Вы не можете удалять свои сообщения
    Вы не можете голосовать в опросах
    Вы не можете прикреплять файлы к сообщениям
    Вы можете скачивать файлы