Ссылка на приватное зеркало нашего сайта всего за 1$. Внимание количество ограничено!!!

2 сезон

iTunes

1 сезон

1

2 сезон

2 сезон

iTunes

1 сезон

RePack

30

Ultimate

ВАЖНО

ИГРА 18+

pack

RePack

MK11
pack

Забери бонус

RePack

jed

!!Акция!!

Alien_Rage

RePack

fifa19

RePack

Assassins Creed: Odyssey

RePack

NEED FOR SPEED™ PAYBACK

4 сезон

9 сезон

Бесстыжие 9 сезон

Все сериалы

все сериалы на PB.wtf

RePack

FAR CRY 5
  

Жмот / Radin ! (Фред Кавайе) [2016, Комедия, BD Remux 1080p] DUB [iTunes] pb.wtf

Жмот через торрент pb.wtf

Размер: 15.53 GB | Добавлен: 3 года 3 мес. назад | Торрент скачан:82 раза
Скачать  

21-08-2017 08:08 Жмот Скачать торрент  

Жмот / Radin !Год выпуска: 2016
Страна: Франция
Жанр: Комедия
Продолжительность: 01:30:11
Перевод: Дублированный | iTunes
Субтитры: отсутствуют

Режиссер: Фред Кавайе

rating

В ролях:

Дани Бун, Лоранс Арне, Ноэми Шмидт, Патрик Ридремонт, Кристоф Канар, Кристоф Фавр, Ивонн Граделе, Карина Маримон, Изабель Зьенталь, Одри Родс-Грег

Описание:

Виртуозный скрипач Франсуа Готье очень любит две вещи: музыку и деньги, которые он скрупулезно экономит. Его маниакальная страсть к накопительству отпугивает многих людей, и лишь единицы готовы общаться с этим человеком. Франсуа удается экономить буквально на всем и везде: он смотрит телевизор соседа через бинокль, лимитирует расход туалетной бумаги, носит с собой калькулятор и создает гигантские очереди на кассе из-за трех центов. Однако вскоре в жизни скрипача происходят два знаменательных события, которые переворачивают всё вверх дном. Мужчина до безумия влюбляется в красавицу- виолончелистку Валери, и почти одновременно с этим Франсуа узнает, что у него, оказывается, есть дочка, которой уже шестнадцать лет. Жизнь дает скряге суровый урок, и теперь у него нет иного выхода, кроме как начать играть по правилам, уготовленным судьбой

Качество: BD Remux 1080p
Формат: MKV
Видео кодек: H.264
Аудио кодек: AC3

Видео: MPEG-4 AVC, 1920x1080, 20.7 Mbit/s, 24.000 fps
Аудио#1: 48 kHz, AC3, 5.1, 384 Kbps | Дублированный | iTunes | RUS |
Аудио#2: 48 kHz, DTS-HD MA, 5.1, 3609 Kbps | Оригинал | FRE |

скриншот   скриншот   скриншот   скриншот   скриншот  

General
Unique ID : 196880990291979342088917391140877342795 (0x941DE6438F862ACB86026EF8AF35984B)
Complete name : F:VideoRadin!.2016.BDREMUX.1080.ExKinoRay.mkv
Format : Matroska
Format version : Version 4 / Version 2
File size : 15.5 GiB
Duration : 1 h 30 min
Overall bit rate mode : Variable
Overall bit rate : 24.7 Mb/s
Encoded date : UTC 2017-06-29 05:00:22
Writing application : mkvmerge v13.0.0 ('The Juggler') 64bit
Writing library : libebml v1.3.4 + libmatroska v1.4.5

Video
ID : 1
Format : AVC
Format/Info : Advanced Video Codec
Format profile : High@L4.1
Format settings, CABAC : Yes
Format settings, ReFrames : 4 frames
Format settings, GOP : M=3, N=24
Codec ID : V_MPEG4/ISO/AVC
Duration : 1 h 30 min
Bit rate mode : Variable
Bit rate : 20.7 Mb/s
Maximum bit rate : 26.7 Mb/s
Width : 1 920 pixels
Height : 1 080 pixels
Display aspect ratio : 16:9
Frame rate mode : Constant
Frame rate : 24.000 FPS
Standard : NTSC
Color space : YUV
Chroma subsampling : 4:2:0
Bit depth : 8 bits
Scan type : Progressive
Bits/(Pixel*Frame) : 0.415
Stream size : 13.0 GiB (84%)
Language : French
Default : Yes
Forced : No
Color range : Limited
Color primaries : BT.709
Transfer characteristics : BT.709
Matrix coefficients : BT.709

Audio #1
ID : 2
Format : AC-3
Format/Info : Audio Coding 3
Format settings, Endianness : Big
Codec ID : A_AC3
Duration : 1 h 30 min
Bit rate mode : Constant
Bit rate : 384 kb/s
Channel(s) : 6 channels
Channel positions : Front: L C R, Side: L R, LFE
Sampling rate : 48.0 kHz
Frame rate : 31.250 FPS (1536 spf)
Bit depth : 16 bits
Compression mode : Lossy
Stream size : 248 MiB (2%)
Title : iTunes
Language : Russian
Service kind : Complete Main
Default : Yes
Forced : No

Audio #2
ID : 3
Format : DTS
Format/Info : Digital Theater Systems
Format profile : MA / Core
Mode : 16
Format settings, Endianness : Big
Codec ID : A_DTS
Duration : 1 h 30 min
Bit rate mode : Variable / Constant
Bit rate : 3 609 kb/s / 1 509 kb/s
Channel(s) : 6 channels
Channel positions : Front: L C R, Side: L R, LFE
Sampling rate : 48.0 kHz
Frame rate : 93.750 FPS (512 spf)
Bit depth : 24 bits
Compression mode : Lossless / Lossy
Stream size : 2.27 GiB (15%)
Title : Original
Language : French
Default : No
Forced : No

Menu
00:00:00.000 : en:Chapter 1
00:12:27.250 : en:Chapter 2
00:23:19.083 : en:Chapter 3
00:36:24.833 : en:Chapter 4
00:47:07.916 : en:Chapter 5
01:06:21.583 : en:Chapter 6
01:14:41.833 : en:Chapter 7
01:22:59.041 : en:Chapter 8

pb.wtf



Скачать Жмот через торрент http://s019.radikal.ru/i629/1706/c4/459ee33a4695.jpg Скачать фильм Жмот через торрент бесплантно в хорошем качестве Описание: Виртуозный скрипач Франсуа Готье очень любит две вещи: музыку и деньги, которые он скрупулезно экономит. Его маниакальная страсть ... 10 10 3
Торрент: Зарегистрирован [2017-08-21 08:08] · скачан: 82 раз
Статус: √ проверено
Размер: 15.53 GB
Как cкачать? Как скачать Жмот через торрент | qTorrent

% Раздел Тема Автор DL S | L
Фильмы 2016 [DVDrip, WEB-DLRip, HDrip] (DUB, MVO) [ 1.42 GB ] Жмот / Radin ! [2016 BDRip] - -Lexx- Скачать
1 | 0
Фильмы 2016 [DVDrip, WEB-DLRip, HDrip] (DUB, MVO) [ 1.42 GB ] Жмот / Radin ! [2016 BDRip] - Twi7ter Скачать
5 | 0
R.G. Resident & PiratVoice - Фильмы, Видео [ 1.52 GB ] Жмот / Radin ! [2016 BDRip-AVC от R.G. Resident] - -Lexx- Скачать
1 | 0
Фильмы [HD 720p, 1080p] (Хороший звук DUB, MVO) [ 5.96 GB ] Жмот / Radin ! [2016 BDRip 1080p] - -Lexx- Скачать
1 | 0

28-11-2019 20:33  

Отключить всю рекламу на сайте

    Дорогой пользователь! Огромная просьба, поблагодарите релизера, оцените раздачу и оставьте свои комментарий, если Вы скачали Жмот через торрент бесплатно! Внесите свою лепту в развитие PiratBit!
    Комментировать посты могут только пользователи прошедшие не сложную регистрацию
    Показать сообщения:    

    Жмот через торрент
    Скачать бесплатно Жмот
    Жмот скачать торрент
    Жмот смотреть онлайн
    Cкачать фильм Жмот бесплатно
    Жмот скачать торрент в хорошем качестве
    Жмот смотреть онлайн бесплатно в хорошем качестве


    Вы не можете начинать темы
    Вы не можете отвечать на сообщения
    Вы не можете редактировать свои сообщения
    Вы не можете удалять свои сообщения
    Вы не можете голосовать в опросах
    Вы не можете прикреплять файлы к сообщениям
    Вы можете скачивать файлы