Ссылка на приватное зеркало нашего сайта всего за 1$. Внимание количество ограничено!!!

2 сезон

iTunes

1 сезон

1

iTunes

iTunes

iTunes

1 сезон

RePack

30

ИГРА 18+

pack

ВАЖНО

!!Акция!!

Alien_RageХит недели

RePack

MK11
pack

Забери бонус

RePack

jed

!!Акция!!

Alien_Rage

RePack

fifa19

RePack

Assassins Creed: Odyssey

RePack

NEED FOR SPEED™ PAYBACK

4 сезон

9 сезон

Бесстыжие 9 сезон

Все сериалы

все сериалы на PB.wtf

RePack

FAR CRY 5
  

Люди как мы / People Like Us (Алекс Куртцман) [2012, драма, BDRip 720p by msltel] MVO, VO (профессиональный) pb.wtf

Люди как мы через торрент pb.wtf

Размер: 5.19 GB | Добавлен: 3 года 2 мес. назад | Торрент скачан:92 раза
Скачать  

21-08-2017 08:13 Люди как мы Скачать торрент  

Название: Люди как мы
Оригинальное название: People Like Us
Год выпуска: 2012
Страна: США
Жанр: драма
Продолжительность: 01:54:46
Перевод: профессиональный многоголосый, авторский

Режиссер: Алекс Куртцман
В ролях: Крис Пайн, Элизабет Бэнкс, Майкл С. Холл Д’Аддарио, Мишель Пфайффер, Оливия Уайлд, Марк Дюпласс, Сара Морнелл, Филип Бэйкер Холл, Дин Чеквала, Барбара Ив Харрис, Дэвид Баррус, Девин Брошу, Абхи Синха, Джон Фавро, Роб Браунштейн, Кристьенн Кастельянос, Даррен О’Харе, Максимилиан Осински, Пол Санчез, Кен Барнетт, Стефани Баст, Шон Бакхолз, Дэвид Келсли, Лерой С. Мобли, Ник Смок, Аманда Янг, Скотт Вентрауб, Аарон Фарб, Соня Лесли, Александр Либ, Кэтрин Сигизмунд, Шила Шоу, Кэти Бойер, Лиза Дел Мундо, Дэвид Аллен Крамер, Муси Дриер, Риф Хаттон, Стив Альтерман, Лиза Ричардсон, Дэвид Дж Ло, ЛеШэй Н. Томлинсон

О фильме: Молодой менеджер по продажам, испытывающий сложности в своей карьере, теряет своего отца, с которым у него были натянутые отношения, на похороны которого он даже не явился, но явился на завещание. А получает в нём лишь просьбу передать 150 000 долларов некому Джошу Дэвису…



Качество: BDRip 720p
Формат: MKV
Видео: MPEG-4 AVC, 4940 Kбит/с, 1280x544
Аудио 1: русский, AC3, 640 kbps, 6 ch [профессиональный многоголосый]
Аудио 2: русский, AC3, 448 kbps, 6 ch [профессиональный одноголосый, Александр Дасевич, по субтитрам Антона Копанёва]
Аудио 3: английский, AC3, 448 kbps, 6 ch, 48 kHz [оригинал]
Субтитры 1: русские (Антон Копанёв)
Субтитры 2: английские
Имеются неименованные главы/чаптеры.
Общее
Уникальный идентификатор : 204917067373880792261600895941458365886 (0x9A2997743880C180A5861A77718D8DBE)
Полное имя : D:\Video\Люди как мы.2012.BDRip.720p by msltel.mkv
Формат : Matroska
Версия формата : Version 4 / Version 2
Размер файла : 5,19 Гбайт
Продолжительность : 1 ч. 54 м.
Общий поток : 6472 Кбит/сек
Дата кодирования : UTC 2017-08-21 05:45:51
Программа кодирования : mkvmerge v8.2.0 ('World of Adventure') 64bit
Библиотека кодирования : libebml v1.3.1 + libmatroska v1.4.2

Видео
Идентификатор : 1
Формат : AVC
Формат/Информация : Advanced Video Codec
Профиль формата : High@L4.1
Параметр CABAC формата : Да
Параметр RefFrames формата : 9 кадров
Идентификатор кодека : V_MPEG4/ISO/AVC
Продолжительность : 1 ч. 54 м.
Битрейт : 4940 Кбит/сек
Ширина : 1280 пикселей
Высота : 544 пикселя
Соотношение сторон : 2,35:1
Режим частоты кадров : Постоянный
Частота кадров : 23,976 (24000/1001) кадра/сек
Цветовое пространство : YUV
Субдискретизация насыщенности : 4:2:0
Битовая глубина : 8 бит
Тип развёртки : Прогрессивная
Бит/(Пиксели*Кадры) : 0.296
Размер потока : 3,95 Гбайт (76%)
Библиотека кодирования : x264 core 146 r2538 121396c
Настройки программы : cabac=1 / ref=9 / deblock=1:-3:-2 / analyse=0x3:0x113 / me=umh / subme=11 / psy=1 / psy_rd=1.00:0.15 / mixed_ref=1 / me_range=32 / chroma_me=1 / trellis=2 / 8x8dct=1 / cqm=0 / deadzone=21,11 / fast_pskip=0 / chroma_qp_offset=-3 / threads=6 / lookahead_threads=1 / sliced_threads=0 / nr=0 / decimate=1 / interlaced=0 / bluray_compat=0 / constrained_intra=0 / bframes=10 / b_pyramid=2 / b_adapt=2 / b_bias=0 / direct=1 / weightb=1 / open_gop=0 / weightp=2 / keyint=230 / keyint_min=23 / scenecut=40 / intra_refresh=0 / rc_lookahead=40 / rc=crf / mbtree=0 / crf=19.0 / qcomp=0.60 / qpmin=0 / qpmax=69 / qpstep=4 / vbv_maxrate=62500 / vbv_bufsize=78125 / crf_max=0.0 / nal_hrd=none / filler=0 / ip_ratio=1.40 / pb_ratio=1.30 / aq=1:1.00
Язык : English
Default : Да
Forced : Нет

Аудио #1
Идентификатор : 2
Формат : AC-3
Формат/Информация : Audio Coding 3
Параметр Endianness формата : Big
Идентификатор кодека : A_AC3
Продолжительность : 1 ч. 54 м.
Вид битрейта : Постоянный
Битрейт : 640 Кбит/сек
Каналы : 6 каналов
Расположение каналов : Front: L C R, Side: L R, LFE
Частота : 48,0 КГц
Частота кадров : 31,250 кадров/сек (1536 SPF)
Битовая глубина : 16 бит
Метод сжатия : С потерями
Размер потока : 525 Мбайт (10%)
Заголовок : MVO
Язык : Russian
ServiceKind/String : Complete Main
Default : Да
Forced : Нет

Аудио #2
Идентификатор : 3
Формат : AC-3
Формат/Информация : Audio Coding 3
Параметр Endianness формата : Big
Идентификатор кодека : A_AC3
Продолжительность : 1 ч. 54 м.
Вид битрейта : Постоянный
Битрейт : 448 Кбит/сек
Каналы : 6 каналов
Расположение каналов : Front: L C R, Side: L R, LFE
Частота : 48,0 КГц
Частота кадров : 31,250 кадров/сек (1536 SPF)
Битовая глубина : 16 бит
Метод сжатия : С потерями
Размер потока : 368 Мбайт (7%)
Заголовок : профессиональный одноголосый, А. Дасевич, по субтитрам Антона Копанёва
Язык : Russian
ServiceKind/String : Complete Main
Default : Нет
Forced : Нет

Аудио #3
Идентификатор : 4
Формат : AC-3
Формат/Информация : Audio Coding 3
Параметр Endianness формата : Big
Идентификатор кодека : A_AC3
Продолжительность : 1 ч. 54 м.
Вид битрейта : Постоянный
Битрейт : 448 Кбит/сек
Каналы : 6 каналов
Расположение каналов : Front: L C R, Side: L R, LFE
Частота : 48,0 КГц
Частота кадров : 31,250 кадров/сек (1536 SPF)
Битовая глубина : 16 бит
Метод сжатия : С потерями
Размер потока : 368 Мбайт (7%)
Заголовок : original
Язык : English
ServiceKind/String : Complete Main
Default : Нет
Forced : Нет

Текст #1
Идентификатор : 5
Формат : UTF-8
Идентификатор кодека : S_TEXT/UTF8
Идентификатор кодека/Информация : UTF-8 Plain Text
Продолжительность : 1 ч. 48 м.
Битрейт : 124 бит/сек
ElementCount : 1681
Размер потока : 99,1 Кбайт (0%)
Заголовок : русские (Антон Копанев a.k.a. ak79)
Язык : Russian
Default : Нет
Forced : Нет

Текст #2
Идентификатор : 6
Формат : UTF-8
Идентификатор кодека : S_TEXT/UTF8
Идентификатор кодека/Информация : UTF-8 Plain Text
Продолжительность : 1 ч. 45 м.
Битрейт : 68 бит/сек
ElementCount : 1615
Размер потока : 52,9 Кбайт (0%)
Заголовок : английские
Язык : English
Default : Нет
Forced : Нет

Меню
00:00:00.000 : :Chapter 01
00:05:05.847 : :Chapter 02
00:08:45.191 : :Chapter 03
00:14:08.347 : :Chapter 04
00:17:54.448 : :Chapter 05
00:22:55.957 : :Chapter 06
00:28:37.173 : :Chapter 07
00:33:08.987 : :Chapter 08
00:36:25.766 : :Chapter 09
00:42:00.935 : :Chapter 10
00:47:00.901 : :Chapter 11
00:53:29.289 : :Chapter 12
01:03:52.245 : :Chapter 13
01:06:44.959 : :Chapter 14
01:13:26.276 : :Chapter 15
01:17:52.668 : :Chapter 16
01:21:42.188 : :Chapter 17
01:31:17.513 : :Chapter 18
01:37:21.418 : :Chapter 19
01:40:47.624 : :Chapter 20
01:48:14.821 : :Chapter 21
01:54:35.910 : :Chapter 22
pb.wtf



Скачать Люди как мы через торрент http://s018.radikal.ru/i517/1708/18/e3dd7c4b9cb0.jpg Скачать фильм Люди как мы через торрент бесплантно в хорошем качестве О фильме: Молодой менеджер по продажам, испытывающий сложности в своей карьере, теряет своего отца, с которым у него были натянутые ... 10 10 2
Info! Золотая раздача, скачанное не засчитывается.
Торрент: Зарегистрирован [2017-08-21 08:13] · скачан: 92 раз
Статус: √ проверено
Размер: 5.19 GB
Как cкачать? Как скачать Люди как мы через торрент | qTorrent

% Раздел Тема Автор DL S | L
Фильмы [HD 720p, 1080p] (Хороший звук DUB, MVO) [ 7.44 GB ] Люди как мы / People Like Us [2012 BDRip 720p от _denis_100 / NNNB] MVO + AVO + Original + Sub _denis_100 Скачать
1 | 0
Фильмы 2012 [ 1.46 GB ] Люди как мы / People Like Us [2012 BDRip] MVO Ворон Скачать
1 | 0
Фильмы [HD 720p, 1080p] (Хороший звук DUB, MVO) [ 15.18 GB ] Люди как мы / People Like Us [2012 BDRip 1080p by msltel] MVO VO msltel Скачать
1 | 0
Фильмы (DVD фильмы) [ 6.58 GB ] Люди как мы / People Like Us [2012 DVD9] R5 voovaz Скачать
1 | 0
Фильмы 2012 [ 1.46 GB ] Люди как мы / People Like Us [2012 HDRip [ лицензия ] Ворон Скачать
1 | 0
Фильмы 2012 [ 749 MB ] Люди как мы / People Like Us [2012 HDRip [ лицензия ] Ворон Скачать
1 | 0

28-11-2019 20:33  

Отключить всю рекламу на сайте

    Дорогой пользователь! Огромная просьба, поблагодарите релизера, оцените раздачу и оставьте свои комментарий, если Вы скачали Люди как мы через торрент бесплатно! Внесите свою лепту в развитие PiratBit!
    Комментировать посты могут только пользователи прошедшие не сложную регистрацию
    Показать сообщения:    

    Люди как мы через торрент
    Скачать бесплатно Люди как мы
    Люди как мы скачать торрент
    Люди как мы смотреть онлайн
    Cкачать фильм Люди как мы бесплатно
    Люди как мы скачать торрент в хорошем качестве
    Люди как мы смотреть онлайн бесплатно в хорошем качестве


    Вы не можете начинать темы
    Вы не можете отвечать на сообщения
    Вы не можете редактировать свои сообщения
    Вы не можете удалять свои сообщения
    Вы не можете голосовать в опросах
    Вы не можете прикреплять файлы к сообщениям
    Вы можете скачивать файлы