новый адрес
Мега распродажа FORZA HORIZON 4 ULTIMATE+ВСЕ DLC+ОНЛАЙН всего за 499р. 349 руб. (супер цена). Внимание количество ограничено!!!

iTunes

1+1

iTunes

мы

iTunes

1

iTunes

Чернобыль

iTunes

Ральф против интернета

Лицензия

ПШазам

Лицензия

Оно 2

Лицензия

30
pack

ВАЖНО

!!Акция!!

Alien_RageХит недели

RePack

Resident Evil 21

ИГРА 18+

pack

RePack

Metro:Exodus

!!Акция!!

Alien_Rage

RePack

fifa19

RePack

Assassins Creed: Odyssey

RePack

NEED FOR SPEED™ PAYBACK

3 сезон

9 сезон

Бесстыжие 9 сезон

Все сериалы

все сериалы на PB.wtf

RePack

FAR CRY 5
Ребята, катастрофически не хватает 1900р. для оплаты серверов за Октябрь (всвязи с блокировками трафик упал в 3 раза), 1-2р., выручайте.
  

Киевлянка (Тимофей Левчук) [1958-1960, СССР, военный, драма, исторический, DVDRip от AVP Studio] pb.wtf

Киевлянка через торрент pb.wtf

Размер: 2.18 GB | Добавлен: 2 года 2 мес. назад | Торрент скачан:28 раз
Скачать  

21-08-2017 08:20 Киевлянка Скачать торрент  

Киевлянка
Страна: СССР
Производство: К/ст им. Довженко

Жанр: военный, драма, исторический
Год выпуска: 1958-1960
Продолжительность: 03:02:36 (01:32:42 + 01:29:54)

Перевод: Не требуется
Cубтитры: нет
Оригинальная аудиодорожка: русский

Режиссер: Тимофей Левчук

В ролях:
Борис Чирков, Нина Иванова, Владимир Гусев, Константин Скоробогатов, Полина Куманченко, Юрий Максимов, Альфред Шестопалов, Иван Переверзев, Валентин Грудинин, Олег Жаков, Галина Ильина, Нина Зорская, Павел Панёв, Т. Коваленко, Маргарита Криницына, Александр Лебедев, Валерий Зиновьев (II), Дая Смирнова, Иван Любич, Сергей Курилов, Юрий Прокопович, Фёдор Ищенко, Владимир Емельянов, Владимир Судьин, Фёдор Радчук, Пётр Михневич, Людмила Татьянчук, Александра Соколова, Александр Толстых, Леонид Данчишин, Михаил Бабаджанов, Лев Бордуков, Лидия Вертинская, Любовь Калачевская, Валерий Квитка, Всеволод Ларионов, Микаэла Дроздовская, Сергей Дворецкий, Анатолий Юрченко, Лариса Левчук, Валентина Ананьина, Олег Борисов, Павел Грубник, Владислав Ковальков, Константин Ершов, Лев Снежницкий, Виктор Халатов, Алескер Гаджи Алекперов, Августа Миклашевская, Николай Кутузов, Алексей Бунин...
Об актёрах подробней

Описание:
Масштабная драматическая история семьи киевлян на фоне бурных исторических событий 1917 года до 7 ноября 1957 года. Что бы ни случилось на жизненном пути главной героини, в душе своей Галя (Нина Иванова) навсегда останется простой советской девушкой, мечтающей о счастье, за которое надо бороться...

Источник: DVD9 R5
Качество видео: DVDRip
Формат видео: AVI

Видео: 688x512 (4:3), 25 fps, XviD ~ 1508 kbps avg, 0.171 bit/pixel
Аудио: 48 kHz, Dolby Digital AC3 2.0, 192 kbps

Раздача от:
Общее
Полное имя : Kievlyanka.1958.DVDRip_[New-team]_by_AVP_Studio.avi
Формат : AVI
Формат/Информация : Audio Video Interleave
Размер файла : 1,11 Гбайт
Продолжительность : 1 ч. 32 м.
Общий поток : 1709 Кбит/сек
Программа кодирования : VirtualDubMod 1.5.10.3 | www.virtualdub-fr.org || (build 2550/release)
Библиотека кодирования : VirtualDubMod build 2550/release

Видео
Идентификатор : 0
Формат : MPEG-4 Visual
Профиль формата : Advanced Simple@L5
Параметр BVOP формата : 1
Параметр QPel формата : Нет
Параметр GMC формата : Без точки перехода
Параметр матрицы формата : Выборочная
Идентификатор кодека : XVID
Идентификатор кодека/Подсказка : XviD
Продолжительность : 1 ч. 32 м.
Битрейт : 1508 Кбит/сек
Ширина : 688 пикселей
Высота : 512 пикселей
Соотношение сторон : 4:3
Частота кадров : 25,000 кадров/сек
Цветовое пространство : YUV
Субдискретизация насыщенности : 4:2:0
Битовая глубина : 8 бит
Тип развёртки : Прогрессивная
Метод сжатия : С потерями
Бит/(Пиксели*Кадры) : 0.171
Размер потока : 1000 Мбайт (88%)
Библиотека кодирования : XviD 73

Аудио
Идентификатор : 1
Формат : AC-3
Формат/Информация : Audio Coding 3
Параметр Endianness формата : Big
Идентификатор кодека : 2000
Продолжительность : 1 ч. 32 м.
Вид битрейта : Постоянный
Битрейт : 192 Кбит/сек
Каналы : 2 канала
Расположение каналов : Front: L R
Частота : 48,0 КГц
Частота кадров : 31,250 кадров/сек (1536 SPF)
Битовая глубина : 16 бит
Метод сжатия : С потерями
Размер потока : 127 Мбайт (11%)
Выравнивание : Разделение по промежуткам
Продолжительность промежутка : 40 мс. (1,00 видеокадр)
Время предзагрузки промежутка : 500 мс
pb.wtf



Скачать Киевлянка через торрент http://s019.radikal.ru/i613/1708/26/f70e8b81f9be.png Скачать фильм Киевлянка через торрент бесплантно в хорошем качестве Описание:Масштабная драматическая история семьи киевлян на фоне бурных исторических событий 1917 года до 7 ноября 1957 года. Что бы ни ... 5 10 1
Info! Золотая раздача, скачанное не засчитывается.
Торрент: Зарегистрирован [2017-08-21 08:20] · скачан: 28 раз
Статус: √ проверено
Размер: 2.18 GB
Как cкачать? Как скачать Киевлянка через торрент | qTorrent

% Раздел Тема Автор DL S | L
Кино СССР [ 2.18 GB ] Киевлянка [1958-1960 СССР военный исторический DVDRip-AVC от AVP Studio] AVP Studio Скачать
1 | 0


>> Регистрируемся здесь <<






Отзывы и комментарии о схеме читаем и пишем здесь: ---> Отзывы и комментарии о схеме

Новые благодарочки в телеграм довольных пользователей:
скриншот   скриншот   скриншот   скриншот   скриншот
    Дорогой пользователь! Огромная просьба, поблагодарите релизера, оцените раздачу и оставьте свои комментарий, если Вы скачали Киевлянка через торрент бесплатно! Внесите свою лепту в развитие PiratBit!
    Комментировать посты могут только пользователи прошедшие не сложную регистрацию
    Показать сообщения:    

    Киевлянка через торрент
    Скачать бесплатно Киевлянка
    Киевлянка скачать торрент
    Киевлянка смотреть онлайн
    Cкачать фильм Киевлянка бесплатно
    Киевлянка скачать торрент в хорошем качестве
    Киевлянка смотреть онлайн бесплатно в хорошем качестве


    Вы не можете начинать темы
    Вы не можете отвечать на сообщения
    Вы не можете редактировать свои сообщения
    Вы не можете удалять свои сообщения
    Вы не можете голосовать в опросах
    Вы не можете прикреплять файлы к сообщениям
    Вы можете скачивать файлы