новый адрес пиратбит piratbit
Мега распродажа FORZA HORIZON 4 ULTIMATE+ВСЕ DLC+ОНЛАЙН всего за 499р. 349 руб. (супер цена). Внимание количество ограничено!!!

iTunes

1+1

iTunes

мы

iTunes

1

iTunes

Чернобыль

iTunes

Ральф против интернета

Лицензия

ПШазам

Лицензия

Игра престолов

Лицензия

30
pack

ВАЖНО

!!Акция!!

Alien_RageХит недели

RePack

Resident Evil 21

ИГРА 18+

pack

RePack

Metro:Exodus

!!Акция!!

Alien_Rage

RePack

fifa19

RePack

Assassins Creed: Odyssey

RePack

NEED FOR SPEED™ PAYBACK

3 сезон

9 сезон

Бесстыжие 9 сезон

Все сериалы

все сериалы на PB.wtf

RePack

FAR CRY 5
Ребята, катастрофически не хватает 1900р. для оплаты серверов за Октябрь (всвязи с блокировками трафик упал в 3 раза), 1-2р., выручайте.
  

Киевлянка (Тимофей Левчук) [1958-1960, СССР, военный, драма, исторический, DVDRip-AVC от AVP Studio] pb.wtf

Киевлянка через торрент pb.wtf

Размер: 2.18 GB | Добавлен: 2 года 2 мес. назад | Торрент скачан:44 раза
Скачать  

21-08-2017 08:21 Киевлянка Скачать торрент  

Киевлянка
Страна: СССР
Производство: К/ст им. Довженко

Жанр: военный, драма, исторический
Год выпуска: 1958-1960
Продолжительность: 03:02:36 (01:32:42 + 01:29:54)

Перевод: Не требуется
Cубтитры: нет
Оригинальная аудиодорожка: русский

Режиссер: Тимофей Левчук

В ролях:
Борис Чирков, Нина Иванова, Владимир Гусев, Константин Скоробогатов, Полина Куманченко, Юрий Максимов, Альфред Шестопалов, Иван Переверзев, Валентин Грудинин, Олег Жаков, Галина Ильина, Нина Зорская, Павел Панёв, Т. Коваленко, Маргарита Криницына, Александр Лебедев, Валерий Зиновьев (II), Дая Смирнова, Иван Любич, Сергей Курилов, Юрий Прокопович, Фёдор Ищенко, Владимир Емельянов, Владимир Судьин, Фёдор Радчук, Пётр Михневич, Людмила Татьянчук, Александра Соколова, Александр Толстых, Леонид Данчишин, Михаил Бабаджанов, Лев Бордуков, Лидия Вертинская, Любовь Калачевская, Валерий Квитка, Всеволод Ларионов, Микаэла Дроздовская, Сергей Дворецкий, Анатолий Юрченко, Лариса Левчук, Валентина Ананьина, Олег Борисов, Павел Грубник, Владислав Ковальков, Константин Ершов, Лев Снежницкий, Виктор Халатов, Алескер Гаджи Алекперов, Августа Миклашевская, Николай Кутузов, Алексей Бунин...
Об актёрах подробней

Описание:
Масштабная драматическая история семьи киевлян на фоне бурных исторических событий 1917 года до 7 ноября 1957 года. Что бы ни случилось на жизненном пути главной героини, в душе своей Галя (Нина Иванова) навсегда останется простой советской девушкой, мечтающей о счастье, за которое надо бороться...

Источник: DVD9 R5
Качество видео: DVDRip-AVC
Формат видео: MKV

Видео: 688->760x570 (4:3), 25 fps, H264 ~ 1513 kbps avg, 0.154 bit/pixel
Аудио: 48 kHz, Dolby Digital AC3 2.0, 192 kbps

Раздача от:
Общее
Полное имя : Kievlyanka.1958.DVDRip-AVC_[New-team]_by_AVP_Studio.mkv
Формат : Matroska
Версия формата : Version 2
Размер файла : 1,11 Гбайт
Продолжительность : 1 ч. 32 м.
Общий поток : 1707 Кбит/сек
Дата кодирования : UTC 2017-08-17 20:20:20
Программа кодирования : mkvmerge v6.1.0 ('Old Devil') built on Mar 4 2013 09:10:42
Библиотека кодирования : libebml v1.3.0 + libmatroska v1.4.0

Видео
Идентификатор : 1
Формат : AVC
Формат/Информация : Advanced Video Codec
Профиль формата : High@L4.1
Параметр CABAC формата : Да
Параметр RefFrames формата : 10 кадров
Идентификатор кодека : V_MPEG4/ISO/AVC
Продолжительность : 1 ч. 32 м.
Битрейт : 1513 Кбит/сек
Ширина : 688 пикселей
Высота : 570 пикселей
Соотношение сторон : 4:3
Режим частоты кадров : Постоянный
Частота кадров : 25,000 кадров/сек
Цветовое пространство : YUV
Субдискретизация насыщенности : 4:2:0
Битовая глубина : 8 бит
Тип развёртки : Прогрессивная
Бит/(Пиксели*Кадры) : 0.154
Размер потока : 982 Мбайт (87%)
Библиотека кодирования : x264 core 130 r2273 b3065e6
Настройки программы : cabac=1 / ref=10 / deblock=1:-2:-1 / analyse=0x3:0x113 / me=umh / subme=10 / psy=1 / psy_rd=1.00:0.00 / mixed_ref=1 / me_range=32 / chroma_me=1 / trellis=2 / 8x8dct=1 / cqm=0 / deadzone=21,11 / fast_pskip=1 / chroma_qp_offset=-2 / threads=6 / lookahead_threads=1 / sliced_threads=0 / nr=0 / decimate=0 / interlaced=0 / bluray_compat=0 / constrained_intra=0 / bframes=8 / b_pyramid=2 / b_adapt=2 / b_bias=0 / direct=3 / weightb=1 / open_gop=0 / weightp=2 / keyint=250 / keyint_min=25 / scenecut=40 / intra_refresh=0 / rc=2pass / mbtree=0 / bitrate=1513 / ratetol=1.0 / qcomp=0.60 / qpmin=0 / qpmax=69 / qpstep=4 / cplxblur=20.0 / qblur=0.5 / ip_ratio=1.40 / pb_ratio=1.30 / aq=1:1.00
Default : Да
Forced : Нет

Аудио
Идентификатор : 2
Формат : AC-3
Формат/Информация : Audio Coding 3
Параметр Endianness формата : Big
Идентификатор кодека : A_AC3
Продолжительность : 1 ч. 32 м.
Вид битрейта : Постоянный
Битрейт : 192 Кбит/сек
Каналы : 2 канала
Расположение каналов : Front: L R
Частота : 48,0 КГц
Частота кадров : 31,250 кадров/сек (1536 SPF)
Битовая глубина : 16 бит
Метод сжатия : С потерями
Размер потока : 127 Мбайт (11%)
Default : Да
Forced : Нет
pb.wtf



Скачать Киевлянка через торрент http://s019.radikal.ru/i613/1708/26/f70e8b81f9be.png Скачать фильм Киевлянка через торрент бесплантно в хорошем качестве Описание:Масштабная драматическая история семьи киевлян на фоне бурных исторических событий 1917 года до 7 ноября 1957 года. Что бы ни ... 5 10 1
Info! Золотая раздача, скачанное не засчитывается.
Торрент: Зарегистрирован [2017-08-21 08:21] · скачан: 44 раз
Статус: √ проверено
Размер: 2.18 GB
Как cкачать? Как скачать Киевлянка через торрент | qTorrent

% Раздел Тема Автор DL S | L
Кино СССР [ 2.18 GB ] Киевлянка [1958-1960 СССР военный исторический DVDRip от AVP Studio] AVP Studio Скачать
1 | 0


>> Регистрируемся здесь <<






Отзывы и комментарии о схеме читаем и пишем здесь: ---> Отзывы и комментарии о схеме

Новые благодарочки в телеграм довольных пользователей:
скриншот   скриншот   скриншот   скриншот   скриншот
    Дорогой пользователь! Огромная просьба, поблагодарите релизера, оцените раздачу и оставьте свои комментарий, если Вы скачали Киевлянка через торрент бесплатно! Внесите свою лепту в развитие PiratBit!
    Комментировать посты могут только пользователи прошедшие не сложную регистрацию
    Показать сообщения:    

    Киевлянка через торрент
    Скачать бесплатно Киевлянка
    Киевлянка скачать торрент
    Киевлянка смотреть онлайн
    Cкачать фильм Киевлянка бесплатно
    Киевлянка скачать торрент в хорошем качестве
    Киевлянка смотреть онлайн бесплатно в хорошем качестве


    Вы не можете начинать темы
    Вы не можете отвечать на сообщения
    Вы не можете редактировать свои сообщения
    Вы не можете удалять свои сообщения
    Вы не можете голосовать в опросах
    Вы не можете прикреплять файлы к сообщениям
    Вы можете скачивать файлы