Ссылка на приватное зеркало нашего сайта всего за 1$. Внимание количество ограничено!!!

2 сезон

iTunes

1 сезон

1

2 сезон

2 сезон

iTunes

1 сезон

RePack

30

Новинка

ВАЖНО

ИГРА 18+

pack

RePack

MK11
pack

Забери бонус

RePack

jed

!!Акция!!

Alien_Rage

RePack

fifa19

RePack

Assassins Creed: Odyssey

RePack

NEED FOR SPEED™ PAYBACK

4 сезон

9 сезон

Бесстыжие 9 сезон

Все сериалы

все сериалы на PB.wtf

RePack

FAR CRY 5
  

Киллер поневоле / Un petit boulot (Паскаль Шомель) [2016, Комедия, криминал, BD Remux 1080p] DUB [iTunes] pb.wtf

Киллер поневоле через торрент pb.wtf

Раздают: 1 [ 0 KB/s ]
Размер: 22.46 GB | Добавлен: 3 года 3 мес. назад | Торрент скачан:30 раз
Скачать  

21-08-2017 08:29 Киллер поневоле Скачать торрент  

Киллер поневоле / Un petit boulotГод выпуска: 2016
Страна: Франция, Бельгия
Жанр: Комедия, криминал
Продолжительность: 01:39:53
Перевод: Дублированный | iTunes
Субтитры: Французские

Режиссер: Паскаль Шомель

rating

В ролях:

Ромен Дюрис, Мишель Блан, Алис Белаиди, Гюстав Керверн, Алекс Лутс, Шарли Дюпон, Филипп Гран Анри, Томас Мустин, Гаэль Судрон, Кароль Трево

Описание:

Жак готов на всё, чтобы заработать денег. Даже на предложение местного авторитета убить его неверную жену. Но есть две проблемы: Жак едва ли умеет управляться с оружием, а его новая девушка работает в полиции, где вовсю ищут неумелого киллера

Качество: BD Remux 1080p
Формат: MKV
Видео кодек: H.264
Аудио кодек: AC3/DTS

Видео: MPEG-4 AVC, 1920x1080, 30.0 Mbit/s, 24.000 fps
Аудио#1: 48 kHz, AC3, 5.1, 384 Kbps | Дублированный | iTunes | RUS |
Аудио#2: 48 kHz, DTS-HD MA, 5.1, 1818 Kbps | Оригинал | FRE |
скриншот   скриншот   скриншот   скриншот   скриншот  

General
Unique ID : 242907970401289891627788518426690514867 (0xB6BE5F96A897B02F80E645D44B88EFB3)
Complete name : F:VideoUn.Petit.Boulot.2016.BDREMUX.1080p.ExKinoRay.mkv
Format : Matroska
Format version : Version 4 / Version 2
File size : 22.5 GiB
Duration : 1 h 39 min
Overall bit rate mode : Variable
Overall bit rate : 32.2 Mb/s
Encoded date : UTC 2017-06-11 16:31:19
Writing application : mkvmerge v12.0.0 ('Trust / Lust') 64bit
Writing library : libebml v1.3.4 + libmatroska v1.4.5

Video
ID : 1
Format : AVC
Format/Info : Advanced Video Codec
Format profile : High@L4.1
Format settings, CABAC : Yes
Format settings, ReFrames : 4 frames
Format settings, GOP : M=3, N=24
Codec ID : V_MPEG4/ISO/AVC
Duration : 1 h 39 min
Bit rate mode : Variable
Bit rate : 30.0 Mb/s
Maximum bit rate : 35.0 Mb/s
Width : 1 920 pixels
Height : 1 080 pixels
Display aspect ratio : 16:9
Frame rate mode : Constant
Frame rate : 24.000 FPS
Standard : NTSC
Color space : YUV
Chroma subsampling : 4:2:0
Bit depth : 8 bits
Scan type : Progressive
Bits/(Pixel*Frame) : 0.602
Stream size : 20.9 GiB (93%)
Language : French
Default : Yes
Forced : No
Color range : Limited
Color primaries : BT.709
Transfer characteristics : BT.709
Matrix coefficients : BT.709

Audio #1
ID : 2
Format : AC-3
Format/Info : Audio Coding 3
Format settings, Endianness : Big
Codec ID : A_AC3
Duration : 1 h 39 min
Bit rate mode : Constant
Bit rate : 384 kb/s
Channel(s) : 6 channels
Channel positions : Front: L C R, Side: L R, LFE
Sampling rate : 48.0 kHz
Frame rate : 31.250 FPS (1536 spf)
Bit depth : 16 bits
Compression mode : Lossy
Stream size : 274 MiB (1%)
Title : iTunes
Language : Russian
Service kind : Complete Main
Default : Yes
Forced : No

Audio #2
ID : 3
Format : DTS
Format/Info : Digital Theater Systems
Format profile : MA / Core
Mode : 16
Format settings, Endianness : Big
Codec ID : A_DTS
Duration : 1 h 39 min
Bit rate mode : Variable / Constant
Bit rate : 1 818 kb/s / 1 509 kb/s
Channel(s) : 6 channels
Channel positions : Front: L C R, Side: L R, LFE
Sampling rate : 48.0 kHz
Frame rate : 93.750 FPS (512 spf)
Bit depth : 16 bits
Compression mode : Lossless / Lossy
Stream size : 1.27 GiB (6%)
Title : Original
Language : French
Default : No
Forced : No

Text #1
ID : 4
Format : UTF-8
Codec ID : S_TEXT/UTF8
Codec ID/Info : UTF-8 Plain Text
Duration : 4 min 34 s
Bit rate : 12 b/s
Count of elements : 19
Stream size : 422 Bytes (0%)
Title : Forced
Language : French
Default : No
Forced : No

Text #2
ID : 5
Format : UTF-8
Codec ID : S_TEXT/UTF8
Codec ID/Info : UTF-8 Plain Text
Duration : 1 h 39 min
Bit rate : 62 b/s
Count of elements : 1396
Stream size : 45.9 KiB (0%)
Title : Full
Language : French
Default : No
Forced : No

Menu
00:00:00.000 : en:Chapter 1
00:07:54.791 : en:Chapter 2
00:15:05.583 : en:Chapter 3
00:23:20.625 : en:Chapter 4
00:33:32.041 : en:Chapter 5
00:47:30.000 : en:Chapter 6
01:00:06.000 : en:Chapter 7
01:09:46.041 : en:Chapter 8
01:14:57.375 : en:Chapter 9
01:20:41.000 : en:Chapter 10
01:29:50.375 : en:Chapter 11
01:36:25.958 : en:Chapter 12

pb.wtf



Скачать Киллер поневоле через торрент http://s010.radikal.ru/i311/1706/5d/31d17062b8dc.jpg Скачать фильм Киллер поневоле через торрент бесплантно в хорошем качестве Описание: Жак готов на всё, чтобы заработать денег. Даже на предложение местного авторитета убить его неверную жену. Но есть две проблемы: ... 10 10 3
Info! Серебряная раздача, засчитывается только 50% скачанного.
Торрент: Зарегистрирован [2017-08-21 08:29] · скачан: 30 раз
Статус: √ проверено
Размер: 22.46 GB
Как cкачать? Как скачать Киллер поневоле через торрент | qTorrent

% Раздел Тема Автор DL S | L
R.G. Resident & PiratVoice - Фильмы, Видео [ 2.43 GB ] Киллер поневоле / Un petit boulot [2016 BDRip-AVC от R.G. Resident] VO [BadBajo] -Lexx- Скачать
1 | 0
Фильмы [HD 720p, 1080p] (Хороший звук DUB, MVO) [ 11.17 GB ] Киллер поневоле / Un petit boulot [2016 BDRip 1080p] - -Lexx- Скачать
1 | 0
Фильмы 2016 [DVDrip, WEB-DLRip, HDrip] (DUB, MVO) [ 1.37 GB ] Киллер поневоле / Un petit boulot [2016 HDRip] killermax2013 Скачать
1 | 0

28-11-2019 20:33  

Отключить всю рекламу на сайте

    Дорогой пользователь! Огромная просьба, поблагодарите релизера, оцените раздачу и оставьте свои комментарий, если Вы скачали Киллер поневоле через торрент бесплатно! Внесите свою лепту в развитие PiratBit!
    Комментировать посты могут только пользователи прошедшие не сложную регистрацию
    Показать сообщения:    

    Киллер поневоле через торрент
    Скачать бесплатно Киллер поневоле
    Киллер поневоле скачать торрент
    Киллер поневоле смотреть онлайн
    Cкачать фильм Киллер поневоле бесплатно
    Киллер поневоле скачать торрент в хорошем качестве
    Киллер поневоле смотреть онлайн бесплатно в хорошем качестве


    Вы не можете начинать темы
    Вы не можете отвечать на сообщения
    Вы не можете редактировать свои сообщения
    Вы не можете удалять свои сообщения
    Вы не можете голосовать в опросах
    Вы не можете прикреплять файлы к сообщениям
    Вы можете скачивать файлы