Ссылка на приватное зеркало нашего сайта всего за 1$. Внимание количество ограничено!!!

2 сезон

iTunes

1 сезон

1

2 сезон

2 сезон

iTunes

1 сезон

RePack

30

Новинка

ВАЖНО

ИГРА 18+

pack

RePack

MK11
pack

Забери бонус

RePack

jed

!!Акция!!

Alien_Rage

RePack

fifa19

RePack

Assassins Creed: Odyssey

RePack

NEED FOR SPEED™ PAYBACK

4 сезон

9 сезон

Бесстыжие 9 сезон

Все сериалы

все сериалы на PB.wtf

RePack

FAR CRY 5
  

Основатель / The Founder (Джон Ли Хэнкок) [2017, Драма, биография, история, Blu-Ray Remux 1080p] MVO+2xAVO pb.wtf

Основатель через торрент pb.wtf

Размер: 27.94 GB | Добавлен: 3 года 3 мес. назад | Торрент скачан:39 раз
Скачать  

21-08-2017 11:58 Основатель Скачать торрент  

Основатель / The FounderГод выпуска: 2017
Страна: США
Жанр: Драма, биография, история
Продолжительность: 01:55:19
Перевод: Профессиональный (многоголосый) (AlexFilm), авторский
Субтитры: Английские (full, SDH)

Режиссер: Джон Ли Хэнкок

rating

В ролях:

Линда Карделлини, Ник Офферман, Майкл Китон, Патрик Уилсон, Лора Дерн, Джон Кэрролл Линч, Б.Дж. Новак, Кимберли Баттиста, Катрин Дайер, Девон Огден

Описание:

Фильм расскажет о жизни Рэя Крока, человека создавшего самую известную в мире сеть ресторанов быстрого обслуживания — McDonald`s. К такому успеху стремится любой уважающий себя мужчина. Хотя большая часть в 52 года уже задумывается о пенсии, упадке сил, потере интереса к женщинам и невозможности изменить устоявшийся расклад в жизни. Но только не Рэй Крок, который загорелся таким жгучим желанием, что найденная им «скважина» со временем принесла ему астрономическую сумму денег. Он словно выпил эликсир молодости и с головой окунулся в воплощение пресловутой американской мечты. У него всё получалось.

Качество: Blu-Ray Remux 1080p
Формат: MKV
Видео кодек: H.264
Аудио кодек: AC3/DTS

Видео: 25900 Кбит/с, 1920x1080, 23.976 кадр/с
Аудио#1: Русский AC3 / 5.1 / 48 kHz / 640 kbps - Профессиональный многоголосый (AlexFilm)
Аудио#2: Русский DTS-HD MA Audio 5.1 / 48 kHz / 3281 kbps - Авторский (Назаров)
Аудио#3: Русский DTS 5.1, 48 KHz, 1510 kbps - Авторский (Есарев)
Аудио#4: Английский DTS-HD MA Audio 5.1 / 48 kHz / 3290 kbps - Оригинал
скриншот   скриншот   скриншот   скриншот   скриншот  

Общее
Уникальный идентификатор : 234005022358064979230409307202845722346 (0xB00BBA5C37E52046AE0F065E6F58C6EA)
Полное имя : D:\РЕМУКС!!!!!\Основатель.BDRemux.mkv
Формат : Matroska
Версия формата : Version 4 / Version 2
Размер файла : 27,9 Гбайт
Продолжительность : 1 ч. 55 м.
Режим общего битрейта : Переменный
Общий поток : 34,7 Мбит/сек
Название фильма : Основатель.BDRemux.thx:SPOMOPS
Дата кодирования : UTC 2017-08-21 09:58:18
Программа кодирования : mkvmerge v6.1.0 ('Old Devil') built on Mar 4 2013 09:10:42
Библиотека кодирования : libebml v1.3.0 + libmatroska v1.4.0

Видео
Идентификатор : 1
Формат : AVC
Формат/Информация : Advanced Video Codec
Профиль формата : High@L4.1
Параметр CABAC формата : Да
Параметр RefFrames формата : 4 кадра
Параметр GOP формата : M=3, N=24
Идентификатор кодека : V_MPEG4/ISO/AVC
Продолжительность : 1 ч. 55 м.
Вид битрейта : Переменный
Максимальный битрейт : 35,0 Мбит/сек
Ширина : 1920 пикселей
Высота : 1080 пикселей
Соотношение сторон : 16:9
Режим частоты кадров : Постоянный
Частота кадров : 23,976 (24000/1001) кадра/сек
Стандарт вещания : NTSC
Цветовое пространство : YUV
Субдискретизация насыщенности : 4:2:0
Битовая глубина : 8 бит
Тип развёртки : Прогрессивная
Заголовок : MPEG-4 AVC, 25.9 Mбит/с, 1920x1080
Язык : English
Default : Да
Forced : Нет
Цветовой диапазон : Limited
Основные цвета : BT.709
Характеристики трансфера : BT.709
Коэффициенты матрицы : BT.709

Аудио #1
Идентификатор : 2
Формат : AC-3
Формат/Информация : Audio Coding 3
Параметр Endianness формата : Big
Идентификатор кодека : A_AC3
Продолжительность : 1 ч. 55 м.
Вид битрейта : Постоянный
Битрейт : 640 Кбит/сек
Каналы : 6 каналов
Расположение каналов : Front: L C R, Side: L R, LFE
Частота : 48,0 КГц
Частота кадров : 31,250 кадров/сек (1536 SPF)
Битовая глубина : 16 бит
Метод сжатия : С потерями
Размер потока : 528 Мбайт (2%)
Заголовок : Русский АСЗ ПМ (AlexFilm)
Язык : Russian
ServiceKind/String : Complete Main
Default : Да
Forced : Нет

Аудио #2
Идентификатор : 3
Формат : DTS
Формат/Информация : Digital Theater Systems
Профиль формата : MA / Core
Режим : 16
Параметр Endianness формата : Big
Идентификатор кодека : A_DTS
Продолжительность : 1 ч. 55 м.
Вид битрейта : Переменный / Постоянный
Битрейт : Неизвестно / 1509 Кбит/сек
Каналы : 6 каналов
Расположение каналов : Front: L C R, Side: L R, LFE
Частота : 48,0 КГц
Частота кадров : 93,750 кадра/сек (512 SPF)
Битовая глубина : 24 бит
Метод сжатия : Без потерь / Lossy
Заголовок : Русский DTS-HD MA - АП (Назаров)
Язык : Russian
Default : Нет
Forced : Нет

Аудио #3
Идентификатор : 4
Формат : DTS
Формат/Информация : Digital Theater Systems
Режим : 16
Параметр Endianness формата : Big
Идентификатор кодека : A_DTS
Продолжительность : 1 ч. 55 м.
Вид битрейта : Постоянный
Битрейт : 1510 Кбит/сек
Каналы : 6 каналов
Расположение каналов : Front: L C R, Side: L R, LFE
Частота : 48,0 КГц
Частота кадров : 93,750 кадра/сек (512 SPF)
Битовая глубина : 24 бит
Метод сжатия : С потерями
Размер потока : 1,22 Гбайт (4%)
Заголовок : Руссккий DTS - АП (Есарев)
Язык : Russian
Default : Нет
Forced : Нет

Аудио #4
Идентификатор : 5
Формат : DTS
Формат/Информация : Digital Theater Systems
Профиль формата : MA / Core
Режим : 16
Параметр Endianness формата : Big
Идентификатор кодека : A_DTS
Продолжительность : 1 ч. 55 м.
Вид битрейта : Переменный / Постоянный
Битрейт : Неизвестно / 1509 Кбит/сек
Каналы : 6 каналов
Расположение каналов : Front: L C R, Side: L R, LFE
Частота : 48,0 КГц
Частота кадров : 93,750 кадра/сек (512 SPF)
Битовая глубина : 24 бит
Метод сжатия : Без потерь / Lossy
Заголовок : Английский DTS-HD MA - Оригинал
Язык : English
Default : Нет
Forced : Нет

Текст #1
Идентификатор : 6
Формат : UTF-8
Идентификатор кодека : S_TEXT/UTF8
Идентификатор кодека/Информация : UTF-8 Plain Text
Заголовок : Английские
Язык : English
Default : Нет
Forced : Нет

Текст #2
Идентификатор : 7
Формат : UTF-8
Идентификатор кодека : S_TEXT/UTF8
Идентификатор кодека/Информация : UTF-8 Plain Text
Заголовок : Английские - SDH
Язык : English
Default : Нет
Forced : Нет

Меню
00:00:00.000 : en:00:00:00.000
00:04:21.094 : en:00:04:21.094
00:10:09.984 : en:00:10:09.984
00:16:15.391 : en:00:16:15.391
00:25:07.172 : en:00:25:07.172
00:31:55.247 : en:00:31:55.247
00:38:49.661 : en:00:38:49.661
00:45:43.491 : en:00:45:43.491
00:52:27.394 : en:00:52:27.394
01:00:31.670 : en:01:00:31.670
01:07:38.263 : en:01:07:38.263
01:12:04.904 : en:01:12:04.904
01:18:36.045 : en:01:18:36.045
01:24:36.947 : en:01:24:36.947
01:31:41.121 : en:01:31:41.121
01:37:26.674 : en:01:37:26.674
01:43:35.167 : en:01:43:35.167
01:47:11.675 : en:01:47:11.675

pb.wtf



Скачать Основатель через торрент http://s019.radikal.ru/i631/1705/61/b2af135e08a1.jpg Скачать фильм Основатель через торрент бесплантно в хорошем качестве Описание: Фильм расскажет о жизни Рэя Крока, человека создавшего самую известную в мире сеть ресторанов быстрого обслуживания — McDonald`s. ... 9.6 10 10
Info! Золотая раздача, скачанное не засчитывается.
Торрент: Зарегистрирован [2017-08-21 11:58] · скачан: 39 раз
Статус: √ проверено
Размер: 27.94 GB
Как cкачать? Как скачать Основатель через торрент | qTorrent

28-11-2019 20:33  

Отключить всю рекламу на сайте

    Дорогой пользователь! Огромная просьба, поблагодарите релизера, оцените раздачу и оставьте свои комментарий, если Вы скачали Основатель через торрент бесплатно! Внесите свою лепту в развитие PiratBit!
    Комментировать посты могут только пользователи прошедшие не сложную регистрацию
    Показать сообщения:    

    Основатель через торрент
    Скачать бесплатно Основатель
    Основатель скачать торрент
    Основатель смотреть онлайн
    Cкачать фильм Основатель бесплатно
    Основатель скачать торрент в хорошем качестве
    Основатель смотреть онлайн бесплатно в хорошем качестве


    Вы не можете начинать темы
    Вы не можете отвечать на сообщения
    Вы не можете редактировать свои сообщения
    Вы не можете удалять свои сообщения
    Вы не можете голосовать в опросах
    Вы не можете прикреплять файлы к сообщениям
    Вы можете скачивать файлы