2 сезон

iTunes

MVO

1

2 сезон

iTunes

iTunes

1 сезон

RePack

30

Новинка

ВАЖНО

ИГРА 18+

pack

RePack

MK11
pack

Легкие деньги

RePack

jed

RePack

fifa19

RePack

RDR2

RePack

NEED FOR SPEED™ PAYBACK

4 сезон

9 сезон

Бесстыжие 9 сезон

Все сериалы

все сериалы на PB.wtf

RePack

FAR CRY 5

Anonymous, доброй ночи, мы не успеваем собрать деньги на оплату серверов за декабрь и январь, помогите нам пожалуйста в это трудное время. В качестве благодарности мы отключим Вам всю рекламу на сайте (укажите свой ник в строку Ваше имя)!

×
  
Magnet ссылка

Спасатели Малибу / Baywatch (Сет Гордон) [2017, Комедия, боевик, драма, BDRip-AVC] [EXTENDED/Расширенная версия] DUB [iTunes] - Generalfilm pb.wtf

Спасатели Малибу через торрент pb.wtf

Размер: 2.23 GB | Добавлен: 3 года 5 мес. назад | Торрент скачан:2531 раз
Скачать  

21-08-2017 12:18 Спасатели Малибу Скачать торрент  

Информация о фильме
Название: Спасатели Малибу
Оригинальное название: Baywatch
Год выпуска: 2017
Страна: США
Жанр: Комедия, боевик, драма
Перевод: Дублированный [iTunes]
Субтитры: Русские (forced,full)
Продолжительность: 02:01:22
Режиссер: Сет Гордон
В ролях: Дуэйн Джонсон, Зак Эфрон, Приянка Чопра, Александра Даддарио, Келли Рорбах, Ильфенеш Хадера, Джон Басс, Яхья Абдул-Марин II, Хэннибал Бёресс, Роб Хюбель

Описание:
Группа пляжных спасателей работает на побережье Тихого океана. Они всегда находятся на своем посту и охраняют отдыхающих от несчастных случаев на воде. Главный герой, опытный спасатель Митч Бьюкеннон, и его молодой коллега Мэтт Броди случайно узнают, что их пляж находится под угрозой исчезновения. Большая нефтяная компания собирается разрушить побережье, преследуя личные интересы руководства, крепко завязанные на финансах.
Рейтинг:

Качество: BDRip-AVC
Формат: MKV
Видео: AVC, 1024x430 (2.35:1), 23.976 fps, 2 250 Kbps (0.213 bit/pixel)
Аудио: русский / AC3 / 5.1 / 48 kHz / 384 kbps / ||
Навигация по главам: есть
Семпл
Общее
Уникальный идентификатор : 201565034023968417960574766759875748166 (0x97A4037337820F8C9682FE1620B8A146)
Полное имя : E:\Baywatch.2017.EXTENDED.BDRip-AVC.Rip.by.White Smoke.R.G.Generalfilm.mkv
Формат : Matroska
Размер файла : 2,23 Гбайт
Продолжительность : 2 ч. 1 м.
Общий поток : 2635 Кбит/сек
Название фильма : Baywatch.2017.EXTENDED.BDRip-AVC.Rip.by.White Smoke.R.G.Generalfilm.mkv
Дата кодирования : UTC 2017-08-21 10:49:47
Программа кодирования : mkvmerge v6.8.0 ('Theme for Great Cities') 64bit built on Mar 2 2014 21:34:26
Библиотека кодирования : libebml v1.3.0 + libmatroska v1.4.1

Видео
Идентификатор : 1
Формат : AVC
Формат/Информация : Advanced Video Codec
Профиль формата : High@L4.1
Параметр CABAC формата : Да
Параметр ReFrames формата : 12 кадры
Идентификатор кодека : V_MPEG4/ISO/AVC
Продолжительность : 2 ч. 1 м.
Битрейт : 2250 Кбит/сек
Ширина : 1024 пикс.
Высота : 430 пикс.
Соотношение сторон : 2,35:1
Частота кадров : 23,976 кадр/сек
Цветовое пространство : YUV
Подвыборка цветности : 4:2:0
Битовая глубина : 8 бит
Тип развёртки : Прогрессивная
Бит/(Пиксели*Кадры) : 0.213
Размер потока : 1,86 Гбайт (83%)
Библиотека кодирования : x264 core 148 r2638 7599210
Настройки программы : cabac=1 / ref=12 / deblock=1:-1:-2 / analyse=0x3:0x113 / me=umh / subme=11 / psy=1 / psy_rd=1.00:0.14 / mixed_ref=1 / me_range=32 / chroma_me=1 / trellis=2 / 8x8dct=1 / cqm=0 / deadzone=21,11 / fast_pskip=0 / chroma_qp_offset=-5 / threads=6 / lookahead_threads=1 / sliced_threads=0 / nr=0 / decimate=0 / interlaced=0 / bluray_compat=0 / constrained_intra=0 / bframes=10 / b_pyramid=2 / b_adapt=2 / b_bias=10 / direct=1 / weightb=0 / open_gop=0 / weightp=2 / keyint=240 / keyint_min=23 / scenecut=40 / intra_refresh=0 / rc_lookahead=40 / rc=2pass / mbtree=1 / bitrate=2250 / ratetol=1.0 / qcomp=0.70 / qpmin=0 / qpmax=69 / qpstep=4 / cplxblur=20.0 / qblur=0.5 / vbv_maxrate=50000 / vbv_bufsize=65500 / nal_hrd=none / filler=0 / ip_ratio=1.40 / aq=1:1.00

Аудио
Идентификатор : 2
Формат : AC-3
Формат/Информация : Audio Coding 3
Расширение режима : CM (complete main)
Идентификатор кодека : A_AC3
Продолжительность : 2 ч. 1 м.
Вид битрейта : Постоянный
Битрейт : 384 Кбит/сек
Канал(ы) : 6 канала(ов)
Расположение каналов : Front: L C R, Side: L R, LFE
Частота : 48,0 КГц
Битовая глубина : 16 бит
Метод сжатия : С потерями
Задержка видео : 9 мс.
Размер потока : 333 Мбайт (15%)
Язык : Russian

Текст #1
Идентификатор : 3
Формат : UTF-8
Идентификатор кодека : S_TEXT/UTF8
Идентификатор кодека/Информация : UTF-8 Plain Text
Заголовок : Forced
Язык : Russian

Текст #2
Идентификатор : 4
Формат : UTF-8
Идентификатор кодека : S_TEXT/UTF8
Идентификатор кодека/Информация : UTF-8 Plain Text
Заголовок : iTunes
Язык : Russian

Меню
00:00:00.000 : en:1
00:08:54.000 : en:2
00:16:52.000 : en:3
00:20:59.000 : en:4
00:29:38.000 : en:5
00:38:00.000 : en:6
00:44:51.000 : en:7
00:50:29.000 : en:8
01:01:25.000 : en:9
01:11:43.000 : en:10
01:19:38.000 : en:11
01:28:54.000 : en:12
01:35:16.000 : en:13
01:44:24.000 : en:14
01:49:59.000 : en:15
01:54:44.000 : en:16
скриншот   скриншот   скриншот   скриншот   скриншот   скриншот   скриншот   скриншот  
pb.wtf



Скачать Спасатели Малибу через торрент http://img11.lostpic.net/2017/06/02/dc26ec4daf95ee37127a1be3b0ff50f4.png Скачать фильм Спасатели Малибу через торрент бесплантно в хорошем качестве Описание: Группа пляжных спасателей работает на побережье Тихого океана. Они всегда находятся на своем посту и охраняют отдыхающих от ... 9.1 10 33
Info! Золотая раздача, скачанное не засчитывается.
Торрент: Зарегистрирован [2017-08-21 12:18] · скачан: 2 531 раз
Статус: √ проверено
Размер: 2.23 GB
Как cкачать? Как скачать Спасатели Малибу через торрент | UTorrent

28-11-2019 20:33  

Отключить всю рекламу на сайте

21-08-2017 21:07 Спасатели Малибу Скачать торрент  

мда вот это туфта писец!столько фальши базаров просто писец. двейн нормо сыграл! но все же!сценарий туфта девок моделей не вывели писец!!!!! типа был снят фильм в стиле 80гг 90гг?? ЗНАЧИТ не получилось! что это за телки? 1 только нормо которая на ботаника велась. на 1 раз если хотитеpb.wtf



23-08-2017 15:48 Спасатели Малибу Скачать торрент  

я гляжу,у них там тоже нехило бабло отмывают и сливают на разного рода т.н."кино" pb.wtf



26-08-2017 09:45 Спасатели Малибу Скачать торрент  

отстойpb.wtf



03-09-2017 08:02 Спасатели Малибу Скачать торрент  

AndreiUSApower писал(а):

мда вот это туфта писец!столько фальши базаров просто писец. двейн нормо сыграл! но все же!сценарий туфта девок моделей не вывели писец!!!!! типа был снят фильм в стиле 80гг 90гг?? ЗНАЧИТ не получилось! что это за телки? 1 только нормо которая на ботаника велась. на 1 раз если хотите

а Прянка Чопра это кто? это и есть модель причем всемирная как Клаудия Шифер.pb.wtf



    Дорогой пользователь! Огромная просьба, поблагодарите релизера, оцените раздачу и оставьте свои комментарий, если Вы скачали Спасатели Малибу через торрент бесплатно! Внесите свою лепту в развитие PiratBit!
    Комментировать посты могут только пользователи прошедшие не сложную регистрацию
    Показать сообщения:    

    Спасатели Малибу через торрент
    Скачать бесплатно Спасатели Малибу
    Спасатели Малибу скачать торрент
    Спасатели Малибу смотреть онлайн
    Cкачать фильм Спасатели Малибу бесплатно
    Спасатели Малибу скачать торрент в хорошем качестве
    Спасатели Малибу смотреть онлайн бесплатно в хорошем качестве


    Вы не можете начинать темы
    Вы не можете отвечать на сообщения
    Вы не можете редактировать свои сообщения
    Вы не можете удалять свои сообщения
    Вы не можете голосовать в опросах
    Вы не можете прикреплять файлы к сообщениям
    Вы можете скачивать файлы