Ссылка на приватное зеркало нашего сайта всего за 1$. Внимание количество ограничено!!!

2 сезон

iTunes

1 сезон

1

2 сезон

2 сезон

iTunes

1 сезон

RePack

30

Ultimate

ВАЖНО

ИГРА 18+

pack

RePack

MK11
pack

Забери бонус

RePack

jed

!!Акция!!

Alien_Rage

RePack

fifa19

RePack

Assassins Creed: Odyssey

RePack

NEED FOR SPEED™ PAYBACK

4 сезон

9 сезон

Бесстыжие 9 сезон

Все сериалы

все сериалы на PB.wtf

RePack

FAR CRY 5
  

Девушка в поезде / The Girl on the Train (Тейт Тейлор) [2016, Триллер, детектив, BD Remux 1080p] DUB [Лицензия] pb.wtf

Девушка в поезде через торрент pb.wtf

Размер: 29.24 GB | Добавлен: 3 года 3 мес. назад | Торрент скачан:20 раз
Скачать  

21-08-2017 15:20 Девушка в поезде Скачать торрент  

Девушка в поезде / The Girl on the TrainГод выпуска: 2016
Страна: США
Жанр: Триллер, детектив
Продолжительность: 01:52:05
Перевод: Дублированный | Лицензия
Субтитры: Русские (full, forced), английские

Режиссер: Тейт Тейлор

rating

В ролях:

Эмили Блант, Хейли Беннетт, Ребекка Фергюсон (II), Джастин Теру, Люк Эванс, Эдгар Рамирес, Лора Припон, Эллисон Джэнни, Даррен Голдштейн, Лиза Кудроу, Клета Элейн Эллингтон, Лана Янг, Рэйчел Кристофер, Грегори Морли, Джон Норрис, Фрэнк Анелло, Сергей Ашуров, Сидни Байц, Марко Кака

Описание:

Каждый день поезд проносит Рэйчел мимо очаровательного коттеджа, где живет идеальная на первый взгляд пара. Но однажды идиллия разрушится — прекрасная незнакомка бесследно исчезнет. Рэйчел окажется втянута в весьма запутанную историю, ведь только она видела из окна то, что было скрыто ото всех.

Качество: BD Remux 1080p
Формат: MKV
Видео кодек: H.264
Аудио кодек: DTS/AC3

Видео: MPEG-4 AVC, 1920x1080, 32.7 Мbit/s, 23.976 fps
Аудио#1: 48 kHz, DTS, 5.1, 768 Kbps | Дублированный |
Аудио#2: 48 kHz, AC3, 5.1, 448 Kbps | Дублированный |
Аудио#3: 48 kHz, DTS-HD MA, 7.1, 3454 kbps | Оригинал |
скриншот   скриншот  скриншот  
скриншот   скриншот  

General
Unique ID : 215705590157688676123411293185650186842 (0xA24762B1CEF541B0BA5BDE9EE8C3DA5A)
Complete name : F:VideoThe.Girl.on.the.Train.2016.D.BDREMUX.1080p.ExKinoRay.mkv
Format : Matroska
Format version : Version 4 / Version 2
File size : 29.2 GiB
Duration : 1 h 52 min
Overall bit rate mode : Variable
Overall bit rate : 37.3 Mb/s
Movie name : The.Girl.on.the.Train.2016 ***селезень***
Encoded date : UTC 2017-01-25 23:20:15
Writing application : mkvmerge v8.3.0 ('Over the Horizon') 64bit
Writing library : libebml v1.3.1 + libmatroska v1.4.2
Cover : Yes
Attachments : cover.jpg

Video
ID : 1
Format : AVC
Format/Info : Advanced Video Codec
Format profile : High@L4.1
Format settings, CABAC : Yes
Format settings, ReFrames : 4 frames
Codec ID : V_MPEG4/ISO/AVC
Duration : 1 h 52 min
Bit rate mode : Variable
Bit rate : 32.7 Mb/s
Maximum bit rate : 34.2 Mb/s
Width : 1 920 pixels
Height : 1 080 pixels
Display aspect ratio : 16:9
Frame rate mode : Constant
Frame rate : 23.976 (24000/1001) FPS
Color space : YUV
Chroma subsampling : 4:2:0
Bit depth : 8 bits
Scan type : Progressive
Bits/(Pixel*Frame) : 0.657
Stream size : 25.6 GiB (87%)
Title : The.Girl.on.the.Train.2016 ***селезень***
Language : English
Default : Yes
Forced : No

Audio #1
ID : 2
Format : DTS
Format/Info : Digital Theater Systems
Mode : 16
Format settings, Endianness : Big
Codec ID : A_DTS
Duration : 1 h 52 min
Bit rate mode : Constant
Bit rate : 768 kb/s
Channel(s) : 6 channels
Channel positions : Front: L C R, Side: L R, LFE
Sampling rate : 48.0 kHz
Frame rate : 93.750 FPS (512 spf)
Bit depth : 24 bits
Compression mode : Lossy
Delay relative to video : -16 ms
Stream size : 616 MiB (2%)
Title : Dub-DTS [License]
Language : Russian
Default : Yes
Forced : No

Audio #2
ID : 3
Format : AC-3
Format/Info : Audio Coding 3
Mode extension : CM (complete main)
Format settings, Endianness : Big
Codec ID : A_AC3
Duration : 1 h 52 min
Bit rate mode : Constant
Bit rate : 448 kb/s
Channel(s) : 6 channels
Channel positions : Front: L C R, Side: L R, LFE
Sampling rate : 48.0 kHz
Frame rate : 31.250 FPS (1536 spf)
Bit depth : 16 bits
Compression mode : Lossy
Delay relative to video : -16 ms
Stream size : 359 MiB (1%)
Title : Dub-AC3 [License]
Language : Russian
Default : No
Forced : No

Audio #3
ID : 4
Format : DTS
Format/Info : Digital Theater Systems
Format profile : X / MA / Core
Mode : 16
Format settings, Endianness : Big
Codec ID : A_DTS
Duration : 1 h 52 min
Bit rate mode : Variable / Variable / Constant
Bit rate : 3 454 kb/s / 3 454 kb/s / 1 509 kb/s
Channel(s) : Object Based / 8 channels / 6 channels
Channel positions : Object Based / Front: L C R, Side: L R, Back: L R, LFE / Front: L C R, Side: L R, LFE
Sampling rate : / 48.0 kHz / 48.0 kHz
Frame rate : 93.750 FPS (512 spf)
Bit depth : / 24 bits / 24 bits
Compression mode : / Lossless / Lossy
Stream size : 2.70 GiB (9%)
Title : Original
Language : English
Default : No
Forced : No

Text #1
ID : 5
Format : UTF-8
Codec ID : S_TEXT/UTF8
Codec ID/Info : UTF-8 Plain Text
Duration : 1 h 51 min
Bit rate : 1 b/s
Count of elements : 34
Stream size : 1.26 KiB (0%)
Title : Forced
Language : Russian
Default : Yes
Forced : No

Text #2
ID : 6
Format : UTF-8
Codec ID : S_TEXT/UTF8
Codec ID/Info : UTF-8 Plain Text
Duration : 1 h 44 min
Bit rate : 76 b/s
Count of elements : 1183
Stream size : 58.7 KiB (0%)
Title : Full
Language : Russian
Default : No
Forced : No

Text #3
ID : 7
Format : UTF-8
Codec ID : S_TEXT/UTF8
Codec ID/Info : UTF-8 Plain Text
Duration : 1 h 44 min
Bit rate : 44 b/s
Count of elements : 1185
Stream size : 33.9 KiB (0%)
Title : Full
Language : English
Default : No
Forced : No

Text #4
ID : 8
Format : UTF-8
Codec ID : S_TEXT/UTF8
Codec ID/Info : UTF-8 Plain Text
Duration : 1 h 45 min
Bit rate : 48 b/s
Count of elements : 1321
Stream size : 37.2 KiB (0%)
Title : SDH
Language : English
Default : No
Forced : No

Menu
00:00:00.000 : en:00:00:00.000
00:04:55.128 : en:00:04:55.128
00:11:38.531 : en:00:11:38.531
00:17:30.007 : en:00:17:30.007
00:23:07.469 : en:00:23:07.469
00:29:35.816 : en:00:29:35.816
00:35:21.953 : en:00:35:21.953
00:42:35.678 : en:00:42:35.678
00:49:51.822 : en:00:49:51.822
00:55:14.186 : en:00:55:14.186
00:59:26.062 : en:00:59:26.062
01:05:48.027 : en:01:05:48.027
01:10:52.957 : en:01:10:52.957
01:13:14.724 : en:01:13:14.724
01:22:34.032 : en:01:22:34.032
01:31:42.956 : en:01:31:42.956
01:42:29.101 : en:01:42:29.101
01:51:31.018 : en:01:51:31.018
02:01:29.324 : en:02:01:29.324
02:07:08.621 : en:02:07:08.621

pb.wtf



Скачать Девушка в поезде через торрент http://s018.radikal.ru/i518/1701/c8/c93a5036343f.jpg Скачать фильм Девушка в поезде через торрент бесплантно в хорошем качестве Описание: Каждый день поезд проносит Рэйчел мимо очаровательного коттеджа, где живет идеальная на первый взгляд пара. Но однажды идиллия ... 10 10 4
Торрент: Зарегистрирован [2017-08-21 15:20] · скачан: 20 раз
Статус: √ проверено
Размер: 29.24 GB
Как cкачать? Как скачать Девушка в поезде через торрент | qTorrent

% Раздел Тема Автор DL S | L
Фильмы [HD 720p, 1080p] (Хороший звук DUB, MVO) [ 11.46 GB ] Девушка в поезде / The Girl on the Train [2016 BDRip 1080p] DUB + 2хAVO - KORSAR kisa1980 Скачать
2 | 0
Фильмы [HD 720p, 1080p] (Хороший звук DUB, MVO) [ 6.52 GB ] Девушка в поезде / The Girl on the Train [2016 BDRip 720p] DUB + 2хAVO - KORSAR kisa1980 Скачать
3 | 0
Ultra HD (UHD: 2K, 4K, 8K) — видео сверхвысокой чёткости [ 53.05 GB ] Девушка в поезде / The Girl on the Train [2016 UHD BDRemux 2160p] 2xAVO [Гаврилов Немахов] +DUB [] bober100 Скачать
1 | 0
Фильмы с авторской озвучкой [ 1.46 GB ] Девушка в поезде / The Girl on the Train [2016 BDRip] [AVO] killermax2013 Скачать
1 | 0
Фильмы 2016 [DVDrip, WEB-DLRip, HDrip] (DUB, MVO) [ 2.17 GB ] Девушка в поезде / The Girl on the Train [2016 HDRip "BD EUR"] coc900 Скачать
1 | 0
Фильмы (WEB-DL 720p, 1080p) [ 4.38 GB ] Девушка в поезде / The Girl on the Train [2016 WEB-DL 1080p] - Ворон Скачать
2 | 0
R.G. Resident & PiratVoice - Фильмы, Видео [ 2.8 GB ] Девушка в поезде / The Girl on the Train [2016 BDRip-AVC от R.G. Resident] - [] -Lexx- Скачать
2 | 0

28-11-2019 20:33  

Отключить всю рекламу на сайте

    Дорогой пользователь! Огромная просьба, поблагодарите релизера, оцените раздачу и оставьте свои комментарий, если Вы скачали Девушка в поезде через торрент бесплатно! Внесите свою лепту в развитие PiratBit!
    Комментировать посты могут только пользователи прошедшие не сложную регистрацию
    Показать сообщения:    

    Девушка в поезде через торрент
    Скачать бесплатно Девушка в поезде
    Девушка в поезде скачать торрент
    Девушка в поезде смотреть онлайн
    Cкачать фильм Девушка в поезде бесплатно
    Девушка в поезде скачать торрент в хорошем качестве
    Девушка в поезде смотреть онлайн бесплатно в хорошем качестве


    Вы не можете начинать темы
    Вы не можете отвечать на сообщения
    Вы не можете редактировать свои сообщения
    Вы не можете удалять свои сообщения
    Вы не можете голосовать в опросах
    Вы не можете прикреплять файлы к сообщениям
    Вы можете скачивать файлы