Ссылка на приватное зеркало нашего сайта всего за 1$. Внимание количество ограничено!!!

2 сезон

iTunes

1 сезон

1

2 сезон

2 сезон

iTunes

1 сезон

RePack

30

Ultimate

ВАЖНО

ИГРА 18+

pack

RePack

MK11
pack

Забери бонус

RePack

jed

!!Акция!!

Alien_Rage

RePack

fifa19

RePack

Assassins Creed: Odyssey

RePack

NEED FOR SPEED™ PAYBACK

4 сезон

9 сезон

Бесстыжие 9 сезон

Все сериалы

все сериалы на PB.wtf

RePack

FAR CRY 5
  

Макс Стил / Max Steel (Стюарт Хендлер) [2016, Фантастика, боевик, приключения, BD Remux 1080p] MVO [iTunes] pb.wtf

Макс Стил через торрент pb.wtf

Размер: 20.55 GB | Добавлен: 3 года 3 мес. назад | Торрент скачан:24 раза
Скачать  

21-08-2017 15:43 Макс Стил Скачать торрент  

Макс Стил / Max SteelГод выпуска: 2016
Страна: Великобритания, США
Жанр: Фантастика, боевик, приключения
Продолжительность: 01:32:27
Перевод: Дубляж iTunes
Субтитры: английские

Режиссер: Стюарт Хендлер

rating

В ролях:

Бен Уинчелл, Джош Бренер, Мария Белло, Энди Гарсиа, Ана Виллафейн, Майк Дойл, Филлип ДеВона, Билли Слотер, Эл Митчелл, Лоуренс Као

Описание:

Когда подросток Макс МакГрат обнаруживает, что его тело может генерировать наиболее мощную энергию во Вселенной, ему приходится встретиться с единственным существом, способным совладать с такой энергией — таинственным техно-органическим инопланетянином по имени Стил.

Качество: BD Remux 1080p
Формат: MKV
Видео кодек: H.264
Аудио кодек: AC3/DTS-HD MA

Видео: MPEG-4 AVC, 1920x1080, 27.7 Mbit/s, 23.976 fps
Аудио#1: 48 kHz, AC3, 5.1, 384 Kbps | Дублированный | iTunes |
Аудио#2: 48 kHz, DTS-HD MA, 5.1, 3709 kbps | Оригинал |
скриншот   скриншот   скриншот   скриншот   скриншот  

General
Unique ID : 187358273241463130796639715252660913451 (0x8CF3E4107A7F01ABB7A4A1506770C52B)
Complete name : F:VideoMax.Steel.2016.BDREMUX.1080p.ExKinoRay.mkv
Format : Matroska
Format version : Version 4 / Version 2
File size : 20.6 GiB
Duration : 1 h 32 min
Overall bit rate mode : Variable
Overall bit rate : 31.8 Mb/s
Encoded date : UTC 2017-02-04 06:38:11
Writing application : mkvmerge v8.3.0 ('Over the Horizon') 64bit
Writing library : libebml v1.3.1 + libmatroska v1.4.2
Cover : Yes
Attachments : cover.jpg

Video
ID : 1
Format : AVC
Format/Info : Advanced Video Codec
Format profile : High@L4.1
Format settings, CABAC : Yes
Format settings, ReFrames : 2 frames
Codec ID : V_MPEG4/ISO/AVC
Duration : 1 h 32 min
Bit rate mode : Variable
Bit rate : 27.7 Mb/s
Width : 1 920 pixels
Height : 1 080 pixels
Display aspect ratio : 16:9
Frame rate mode : Constant
Frame rate : 23.976 (24000/1001) FPS
Color space : YUV
Chroma subsampling : 4:2:0
Bit depth : 8 bits
Scan type : Progressive
Bits/(Pixel*Frame) : 0.558
Stream size : 17.9 GiB (87%)
Language : English
Default : Yes
Forced : No

Audio #1
ID : 2
Format : AC-3
Format/Info : Audio Coding 3
Mode extension : CM (complete main)
Format settings, Endianness : Big
Codec ID : A_AC3
Duration : 1 h 32 min
Bit rate mode : Constant
Bit rate : 384 kb/s
Channel(s) : 6 channels
Channel positions : Front: L C R, Side: L R, LFE
Sampling rate : 48.0 kHz
Frame rate : 31.250 FPS (1536 spf)
Bit depth : 16 bits
Compression mode : Lossy
Stream size : 254 MiB (1%)
Title : iTunes
Language : Russian
Default : Yes
Forced : No

Audio #2
ID : 3
Format : DTS
Format/Info : Digital Theater Systems
Format profile : MA / Core
Mode : 16
Format settings, Endianness : Big
Codec ID : A_DTS
Duration : 1 h 32 min
Bit rate mode : Variable / Constant
Bit rate : 3 709 kb/s / 1 509 kb/s
Channel(s) : 6 channels
Channel positions : Front: L C R, Side: L R, LFE
Sampling rate : 48.0 kHz
Frame rate : 93.750 FPS (512 spf)
Bit depth : 24 bits
Compression mode : Lossless / Lossy
Stream size : 2.40 GiB (12%)
Title : Original
Language : English
Default : No
Forced : No

Text
ID : 4
Format : UTF-8
Codec ID : S_TEXT/UTF8
Codec ID/Info : UTF-8 Plain Text
Duration : 1 h 25 min
Bit rate : 52 b/s
Count of elements : 1132
Stream size : 33.1 KiB (0%)
Title : Full
Language : English
Default : No
Forced : No

Menu
00:00:00.000 : en:Chapter 01
00:04:43.283 : en:Chapter 02
00:10:19.243 : en:Chapter 03
00:15:11.535 : en:Chapter 04
00:19:44.766 : en:Chapter 05
00:23:05.050 : en:Chapter 06
00:26:46.980 : en:Chapter 07
00:30:20.276 : en:Chapter 08
00:35:22.495 : en:Chapter 09
00:38:15.584 : en:Chapter 10
00:43:01.287 : en:Chapter 11
00:48:07.217 : en:Chapter 12
00:54:16.461 : en:Chapter 13
01:00:07.061 : en:Chapter 14
01:03:42.985 : en:Chapter 15
01:08:38.197 : en:Chapter 16
01:13:22.940 : en:Chapter 17
01:19:59.628 : en:Chapter 18
01:24:29.981 : en:Chapter 19
01:26:45.491 : en:Chapter 20

pb.wtf



Скачать Макс Стил через торрент http://s019.radikal.ru/i623/1702/e3/9a6963012243.jpg Скачать фильм Макс Стил через торрент бесплантно в хорошем качестве Описание: Когда подросток Макс МакГрат обнаруживает, что его тело может генерировать наиболее мощную энергию во Вселенной, ему приходится ... 10 10 5
Торрент: Зарегистрирован [2017-08-21 15:43] · скачан: 24 раз
Статус: √ проверено
Размер: 20.55 GB
Как cкачать? Как скачать Макс Стил через торрент | qTorrent

% Раздел Тема Автор DL S | L
Фильмы [HD 720p, 1080p] (Хороший звук DUB, MVO) [ 4.75 GB ] Макс Стил / Max Steel [2016 BDRip 720p] - sheker187 Скачать
1 | 0
Фильмы [HD 720p, 1080p] (Хороший звук DUB, MVO) [ 10.59 GB ] Макс Стил / Max Steel [2016 BDRip 1080p] - sheker187 Скачать
1 | 0
Фильмы 2016 [DVDrip, WEB-DLRip, HDrip] (DUB, MVO) [ 1.42 GB ] Макс Стил / Max Steel [2016 BDRip] - Twi7ter Скачать
1 | 0
R.G. Resident & PiratVoice - Фильмы, Видео [ 1.69 GB ] Макс Стил / Max Steel [2016 BDRip-AVC] - R.G.Resident schultz Скачать
2 | 0
Фильмы 2016 [DVDrip, WEB-DLRip, HDrip] (DUB, MVO) [ 699 MB ] Макс Стил / Max Steel [2016 HDRip] - Sherif Скачать
1 | 0
Фильмы 2016 [DVDrip, WEB-DLRip, HDrip] (DUB, MVO) [ 1.37 GB ] Макс Стил / Max Steel [2016 HDRip] - sheker187 Скачать
2 | 0

28-11-2019 20:33  

Отключить всю рекламу на сайте

    Дорогой пользователь! Огромная просьба, поблагодарите релизера, оцените раздачу и оставьте свои комментарий, если Вы скачали Макс Стил через торрент бесплатно! Внесите свою лепту в развитие PiratBit!
    Комментировать посты могут только пользователи прошедшие не сложную регистрацию
    Показать сообщения:    

    Макс Стил через торрент
    Скачать бесплатно Макс Стил
    Макс Стил скачать торрент
    Макс Стил смотреть онлайн
    Cкачать фильм Макс Стил бесплатно
    Макс Стил скачать торрент в хорошем качестве
    Макс Стил смотреть онлайн бесплатно в хорошем качестве


    Вы не можете начинать темы
    Вы не можете отвечать на сообщения
    Вы не можете редактировать свои сообщения
    Вы не можете удалять свои сообщения
    Вы не можете голосовать в опросах
    Вы не можете прикреплять файлы к сообщениям
    Вы можете скачивать файлы