2 сезон

iTunes

MVO

1

2 сезон

iTunes

iTunes

1 сезон

RePack

30

Новинка

ВАЖНО

ИГРА 18+

pack

RePack

MK11
pack

Легкие деньги

RePack

jed

RePack

fifa19

RePack

RDR2

RePack

NEED FOR SPEED™ PAYBACK

4 сезон

9 сезон

Бесстыжие 9 сезон

Все сериалы

все сериалы на PB.wtf

RePack

FAR CRY 5

Anonymous, доброй ночи, мы не успеваем собрать деньги на оплату серверов за декабрь и январь, помогите нам пожалуйста в это трудное время. В качестве благодарности мы отключим Вам всю рекламу на сайте (укажите свой ник в строку Ваше имя)!

×
  
Magnet ссылка

Гималаи с Майклом Пэйлином / BBC. Himalaya with Michael Palin / 1 сезон / 1-6 серии из 6 (Роджер Милс, Джон-Пол Дэвидсон) [2004, документальный, приключения, природа, путешествие, флора, фауна, WEBRip 720p] DUB pb.wtf

Гималаи с Майклом Пэйлином через торрент pb.wtf

Размер: 9.53 GB | Добавлен: 3 года 4 мес. назад | Торрент скачан:34 раза
Скачать  

23-08-2017 07:35 Гималаи с Майклом Пэйлином Скачать торрент  

Гималаи с Майклом Пэйлином / BBC. Himalaya with Michael PalinГод выпуска: 2004
Страна: Великобритания
Жанр: документальный, приключения, природа, путешествие, флора, фауна
Продолжительность: 6 х ~ 00:55:00
Перевод: Дубляж
Субтитры: отсутствуют

Режиссер: Роджер Милс, Джон-Пол Дэвидсон

rating

В ролях:

Майкл Пэйлин, Далай Лама

Описание:

Добро пожаловать в удивительное путешествие по высочайшей горной системе Земли - Гималаи. Очутиться там - это мечта каждого, кто хоть раз хотел оказаться на вершине мира. Эта горная система тянется через несколько азиатских стран, включая Бутан, Пакистан, Индию, Непал и, конечно, Китай. Общая протяженность гор составляет порядка двух с половиной тысяч километров, а самая высокая точка (гора Джомолунгма) достигает высоты в 8 848 метров над уровнем моря. Так давайте поскорее окунемся в удивительную атмосферу этого необычного и полного загадок места и насладимся великолепием здешней природы. Помогать нам будет знаменитый британский актер, бывший участник труппы "Монти Пайтон" Майкл Пэйлин. Гималаи - это большое приключение!

Качество: WEBRip 720p
Формат: MPEG-4
Видео кодек: H.264
Аудио кодек: AAC

Видео: 1280x720 (16:9), 30,000 fps, AVC (х264), High@L4.1, 3997Кбит/сек, ~ 0.145 bit/pixel
Аудио: Русский 44,1 kHz, AAC, 2/0 (L,R), ~128.00 kbps avg
скриншот   скриншот   скриншот   скриншот   скриншот  

1 серия.
Северо-Запад Пакистана. На паровозе по Хайберской железной дороге, проложенной англичанами 80 лет назад, Пэйлин отправляется к племенам, для которых изготовление оружия - это гордость и традиция, а игра в крикет важнее лечения зубов. Пэйлин наблюдает гонки на быках и игру в поло.

2 серия.
Из Пакистана Пэйлин отправляется в Индию, где знакомится с сикхами и посещает Золотой Храм. Каждый день здесь готовят еду и бесплатно раздают всем желающим. Недалеко от сикхского храма в деревне Маклеодганж живет лидер тибетского буддизма Далай-лама. Для встречи с ним сюда приезжают многочисленные путешественники со всего мира.

3-я серия.
Из Индии Майкл Пэйлин направляется в Непал, где на самолете поднимается в горы. Он получает благословение короля Гианендра во время индуистского праздника Десайн и завершает этот отрезок пути воскресным обедом на Эвересте.

4-я серия.
Путь Майкла Пэйлина проходит через самое сердце Тибета. По горной дороге он едет в Лхасу, где находится самый большой монастырь. 800 монахов изучают здесь тибетскую медицину, философию, историю и даже астрологию. В Лхасе также живет второй по значимости религиозный лидер - Панчен-лама. Со своим проводником по имени Сонам Майкл Пэйлин едет на пастбище, где пасет яков. Затем участвует в тибетском конном празднике в городе Ю-Шу.

5-я серия.
Вместе с проводником Ли Юанем, нагом по национальности, Пэйлин путешествует по реке Янцзы, знакомится с народностью мосуо и посещает известного практикующего специалиста доктора Хо.

6-я серия.
Дальнейший путь Майкла Пэйлина лежит в королевство Бутан, где он знакомится с буддистами, вера которых отличается от буддизма, распространенного на Тибете. Пэйлин участвует в религиозном празднике тсечу, наблюдает танцы, которых раньше никогда не видел и стрельбу из лука в бутанском стиле. Заканчивается путешествие по Гималаям в Бангладеш.

Общее
Полное имя : D:\Гималаи с Майклом Пэйлином\BBC Гималаи с Майклом Пэйлином Himalaya with Michael Palin 2004 (1 cерия).mp4
Формат : MPEG-4
Профиль формата : Base Media / Version 2
Идентификатор кодека : mp42 (mp42)
Размер файла : 1,59 Гбайт
Продолжительность : 55 м. 3 с.
Режим общего битрейта : Переменный
Общий поток : 4131 Кбит/сек
Содиректор : codirector
Студия-производитель : studio
Тип содержимого : Unknown Type
Дата кодирования : UTC 2017-08-16 20:21:39
Дата пометки : UTC 2017-08-16 20:21:39

Видео
Идентификатор : 1
Формат : AVC
Формат/Информация : Advanced Video Codec
Профиль формата : Main@L4.1
Параметр CABAC формата : Да
Параметр ReFrames формата : 2 кадра
Параметр GOP формата : M=3, N=25
Режим смешивания : Container profile=Baseline@3.0
Идентификатор кодека : avc1
Идентификатор кодека/Информация : Advanced Video Coding
Продолжительность : 55 м. 3 с.
Вид битрейта : Переменный
Битрейт : 3997 Кбит/сек
Максимальный битрейт : 6000 Кбит/сек
Ширина : 1280 пикселей
Высота : 720 пикселей
Соотношение сторон : 16:9
Режим частоты кадров : Постоянный
Частота кадров : 30,000 кадров/сек
Цветовое пространство : YUV
Субдискретизация насыщенности : 4:2:0
Битовая глубина : 8 бит
Тип развёртки : Прогрессивная
Бит/(Пиксели*Кадры) : 0.145
Размер потока : 1,54 Гбайт (97%)
Язык : English

Аудио
Идентификатор : 2
Формат : AAC
Формат/Информация : Advanced Audio Codec
Профиль формата : LC
Идентификатор кодека : 40
Продолжительность : 55 м. 3 с.
Вид битрейта : Постоянный
Битрейт : 128 Кбит/сек
Каналы : 2 канала
Расположение каналов : Front: L R
Частота : 44,1 КГц
Частота кадров : 43,066 кадра/сек (1024 spf)
Метод сжатия : С потерями
Размер потока : 50,4 Мбайт (3%)
Заголовок : Stereo
Язык : English
Default : Да
Alternate group : 1
pb.wtf



Скачать Гималаи с Майклом Пэйлином через торрент http://rudb.org/img/2017_08/i599cf43a8e143.jpg Скачать фильм Гималаи с Майклом Пэйлином через торрент бесплантно в хорошем качестве Описание: Добро пожаловать в удивительное путешествие по высочайшей горной системе Земли - Гималаи. Очутиться там - это мечта каждого, кто ... 10 10 2
Торрент: Зарегистрирован [2017-08-23 07:35] · скачан: 34 раз
Статус: √ проверено
Размер: 9.53 GB
Как cкачать? Как скачать Гималаи с Майклом Пэйлином через торрент | UTorrent

28-11-2019 20:33  

Отключить всю рекламу на сайте

    Дорогой пользователь! Огромная просьба, поблагодарите релизера, оцените раздачу и оставьте свои комментарий, если Вы скачали Гималаи с Майклом Пэйлином через торрент бесплатно! Внесите свою лепту в развитие PiratBit!
    Комментировать посты могут только пользователи прошедшие не сложную регистрацию
    Показать сообщения:    

    Гималаи с Майклом Пэйлином через торрент
    Скачать бесплатно Гималаи с Майклом Пэйлином
    Гималаи с Майклом Пэйлином скачать торрент
    Гималаи с Майклом Пэйлином смотреть онлайн
    Cкачать фильм Гималаи с Майклом Пэйлином бесплатно
    Гималаи с Майклом Пэйлином скачать торрент в хорошем качестве
    Гималаи с Майклом Пэйлином смотреть онлайн бесплатно в хорошем качестве


    Вы не можете начинать темы
    Вы не можете отвечать на сообщения
    Вы не можете редактировать свои сообщения
    Вы не можете удалять свои сообщения
    Вы не можете голосовать в опросах
    Вы не можете прикреплять файлы к сообщениям
    Вы можете скачивать файлы