Ссылка на приватное зеркало всего за 1$. Внимание количество ограничено!!!

OK

1+1

iTunes

мы

OK

1

WEB-DLRip

Джокер

Пифагор

Ведьмак / The Witcher сериал

iTunes

ПШазам

ОК

Оно 2

iTunes

30
pack

Вам бонус

ВАЖНО

!!Акция!!

Alien_RageХит недели

RePack

Resident Evil 21

ИГРА 18+

pack

RePack

jed

RePack

fifa19

RePack

Assassins Creed: Odyssey

RePack

NEED FOR SPEED™ PAYBACK

4 сезон

9 сезон

Бесстыжие 9 сезон

Все сериалы

все сериалы на PB.wtf

RePack

FAR CRY 5
  

11 друзей Ошанина (Максат Жумаев) [2014 г., криминальная комедия, WEBRip] pb.wtf

11 друзей Ошанина через торрент pb.wtf

Размер: 1.33 GB | Добавлен: 2 года 5 мес. назад | Торрент скачан:143 раза
Скачать  

23-08-2017 14:16 11 друзей Ошанина Скачать торрент  

11 друзей Ошанина
Год выпуска: 2014
Страна: Кыргызстан
Жанр: криминальная комедия
Продолжительность: 01:07:47
Субтитры: нет

Режиссер: Максат Жумаев

В ролях: Каныбек Рыспаев, Бахтияр Матянью, Айсулуу Молдалиева, Наталья Смолякова.

Описание: Предприимчивый молодой человек родом из Оша задумал аферу века. И в этом ему помогают 11 друзей. Получится ли у друзей ограбление "по-кыргызски"?

Качество: WEBRip
Формат: AVI
Видео кодек: XviD
Аудио кодек: AC3
Видео: XviD, 2340 Кбит/сек, 720x304
Аудио#1: AC3 , 2 ch, 448 Кбит/сек
скриншот   скриншот   скриншот   скриншот  

General
Complete name : H:\релизы.торрентфайл\11 druzeyi Oshaninf 2014.avi
Format : AVI
Format/Info : Audio Video Interleave
Format profile : OpenDML
File size : 1.33 GiB
Duration : 1h 7mn
Overall bit rate : 2 800 Kbps
Writing application : Lavf57.71.100
Comment : Rip by Basma4i

Video
ID : 0
Format : MPEG-4 Visual
Format profile : Advanced Simple@L5
Format settings, BVOP : No
Format settings, QPel : No
Format settings, GMC : No warppoints
Format settings, Matrix : Default (H.263)
Codec ID : XVID
Codec ID/Hint : XviD
Duration : 1h 7mn
Bit rate : 2 340 Kbps
Width : 720 pixels
Height : 304 pixels
Display aspect ratio : 2.35:1
Frame rate : 25.000 fps
Color space : YUV
Chroma subsampling : 4:2:0
Bit depth : 8 bits
Scan type : Progressive
Compression mode : Lossy
Bits/(Pixel*Frame) : 0.428
Stream size : 1.11 GiB (84%)
Writing library : XviD 67

Audio
ID : 1
Format : AC-3
Format/Info : Audio Coding 3
Mode extension : CM (complete main)
Format settings, Endianness : Big
Codec ID : 2000
Duration : 1h 7mn
Bit rate mode : Constant
Bit rate : 448 Kbps
Channel(s) : 2 channels
Channel positions : Front: L R
Sampling rate : 44.1 KHz
Bit depth : 16 bits
Compression mode : Lossy
Stream size : 217 MiB (16%)
Alignment : Aligned on interleaves
Interleave, duration : 35 ms (0.87 video frame)
Title : IsoMedia File Produced by Google, 5-11-2011

pb.wtf



Скачать 11 друзей Ошанина через торрент http://i92.fastpic.ru/big/2017/0823/87/1db6ec3987fc98aed160092d1f060387.png Скачать фильм 11 друзей Ошанина через торрент бесплантно в хорошем качестве Описание: Предприимчивый молодой человек родом из Оша задумал аферу века. И в этом ему помогают 11 друзей. Получится ли у друзей ограбление ... 5.2 10 12
Info! Золотая раздача, скачанное не засчитывается.
Торрент: Зарегистрирован [2017-08-23 14:16] · скачан: 143 раз
Статус: √ проверено
Размер: 1.33 GB
Как cкачать? Как скачать 11 друзей Ошанина через торрент | qTorrent

28-11-2019 20:33  

Отключить всю рекламу на сайте

23-08-2017 14:19 11 друзей Ошанина Скачать торрент  

pb.wtf



23-08-2017 15:20 11 друзей Ошанина Скачать торрент  

Кыргызстан bugpb.wtf



23-08-2017 15:49 11 друзей Ошанина Скачать торрент  

pb.wtf



23-08-2017 17:04 11 друзей Ошанина Скачать торрент  

pb.wtf



23-08-2017 19:32 11 друзей Ошанина Скачать торрент  

Хахахаха звучит заманчиво)pb.wtf



23-08-2017 20:59 11 друзей Ошанина Скачать торрент  

Держите меня семеро .... )))pb.wtf



24-08-2017 09:15 11 друзей Ошанина Скачать торрент  

No God! Please! Noooo!pb.wtf



25-08-2017 11:20 11 друзей Ошанина Скачать торрент  

Polanski писал(а):

Держите меня семеро .... )))

Держите меня одиннадцатеро....pb.wtf



26-08-2017 05:06 11 друзей Ошанина Скачать торрент  

я в замешательстве,качать или нет.pb.wtf



    Дорогой пользователь! Огромная просьба, поблагодарите релизера, оцените раздачу и оставьте свои комментарий, если Вы скачали 11 друзей Ошанина через торрент бесплатно! Внесите свою лепту в развитие PiratBit!
    Комментировать посты могут только пользователи прошедшие не сложную регистрацию
    Показать сообщения:    

    11 друзей Ошанина через торрент
    Скачать бесплатно 11 друзей Ошанина
    11 друзей Ошанина скачать торрент
    11 друзей Ошанина смотреть онлайн
    Cкачать фильм 11 друзей Ошанина бесплатно
    11 друзей Ошанина скачать торрент в хорошем качестве
    11 друзей Ошанина смотреть онлайн бесплатно в хорошем качестве


    Вы не можете начинать темы
    Вы не можете отвечать на сообщения
    Вы не можете редактировать свои сообщения
    Вы не можете удалять свои сообщения
    Вы не можете голосовать в опросах
    Вы не можете прикреплять файлы к сообщениям
    Вы можете скачивать файлы