2 сезон

iTunes

MVO

1

2 сезон

iTunes

iTunes

1 сезон

RePack

30

Новинка

ВАЖНО

ИГРА 18+

pack

RePack

MK11
pack

Легкие деньги

RePack

jed

RePack

fifa19

RePack

RDR2

RePack

NEED FOR SPEED™ PAYBACK

4 сезон

9 сезон

Бесстыжие 9 сезон

Все сериалы

все сериалы на PB.wtf

RePack

FAR CRY 5

Anonymous, доброй ночи, мы не успеваем собрать деньги на оплату серверов за декабрь и январь, помогите нам пожалуйста в это трудное время. В качестве благодарности мы отключим Вам всю рекламу на сайте (укажите свой ник в строку Ваше имя)!

×
  
Magnet ссылка

Очень плохие девчонки / Rough Night (Люсия Аньелло) [2017, Комедия, приключения, BDRip-AVC] 2xDUB (rus, ukr) [iTunes] pb.wtf

Очень плохие девчонки через торрент pb.wtf

Раздают: 1 [ 0 KB/s ]
Размер: 1.91 GB | Добавлен: 3 года 5 мес. назад | Торрент скачан:1876 раз
Скачать  

24-08-2017 04:56 Очень плохие девчонки Скачать торрент  

Очень плохие девчонки / Rough NightГод выпуска: 2017
Страна: США
Жанр: Комедия, приключения
Продолжительность: 01:40:50
Перевод: Дубляж iTunes
Субтитры: Русские, английские

Режиссер: Люсия Аньелло

rating

В ролях:

Скарлетт Йоханссон, Джиллиан Белл, Зои Кравиц, Илана Глейзер, Кейт МакКиннон, Пол В. Даунс, Райан Купер, Тай Буррелл, Деми Мур, Энрике Мурсиано

Описание:

Что может омрачить развеселый и безбашенный девичник в Майами? Наверное, только нелепая смерть стриптизера. Теперь подружкам предстоит выпутаться из дурацкой истории и как-то замести следы, пока они не попали в руки к копам.

Качество: BDRip-AVC
Формат: MKV
Видео кодек: H.264
Аудио кодек: AC3

Видео: 1024x428 (16:9), 23,976 fps, x264 ~1680 kbps avg, 0.160 bit/pixel
Аудио#1: 48 kHz, AC3 Dolby Digital, 3/2 (L,C,R,l,r) + LFE ch, ~384.00 kbps avg | RUS (iTunes)
Аудио#2: 48 kHz, AC3 Dolby Digital, 3/2 (L,C,R,l,r) + LFE ch, ~448.00 kbps avg | ENG
Аудио#3: 48 kHz, AC3 Dolby Digital, 2 (L,R) ch, ~192.00 kbps avg | UKR (iTunes)
скриншот   скриншот   скриншот   скриншот   скриншот  

Общее
Уникальный идентификатор : 253035591854106720667229360025987805294 (0xBE5CE1E0B0CDE59DB42D26DC1839706E)
Полное имя : D:Rough.Night.2017.BDRip(AVC).OlLanDGroup.mkv
Формат : Matroska
Версия формата : Version 2
Размер файла : 1,91 Гбайт
Продолжительность : 1 ч. 40 м.
Общий поток : 2709 Кбит/сек
Название фильма : Rough.Night.2017 #TorpedoUK#
Дата кодирования : UTC 2017-08-24 01:02:00
Программа кодирования : mkvmerge v7.8.0 ('River Man') 32bit built on Apr 3 2015 12:11:22
Библиотека кодирования : libebml v1.3.1 + libmatroska v1.4.2
Обложка : Yes
Attachments : cover_land.jpg / small_cover.jpg / small_cover_land.jpg / cover.jpg

Видео
Идентификатор : 1
Формат : AVC
Формат/Информация : Advanced Video Codec
Профиль формата : High@L4.1
Параметр CABAC формата : Да
Параметр ReFrames формата : 10 кадров
Идентификатор кодека : V_MPEG4/ISO/AVC
Продолжительность : 1 ч. 40 м.
Битрейт : 1680 Кбит/сек
Ширина : 1024 пикселя
Высота : 428 пикселей
Соотношение сторон : 2,40:1
Режим частоты кадров : Постоянный
Частота кадров : 23,976 (24000/1001) кадра/сек
Цветовое пространство : YUV
Субдискретизация насыщенности : 4:2:0
Битовая глубина : 8 бит
Тип развёртки : Прогрессивная
Бит/(Пиксели*Кадры) : 0.160
Размер потока : 1,15 Гбайт (60%)
Библиотека кодирования : x264 core 146 r2538 121396c
Настройки программы : cabac=1 / ref=10 / deblock=1:-3:-3 / analyse=0x3:0x133 / me=umh / subme=11 / psy=1 / psy_rd=1.00:0.07 / mixed_ref=1 / me_range=48 / chroma_me=1 / trellis=2 / 8x8dct=1 / cqm=0 / deadzone=21,11 / fast_pskip=0 / chroma_qp_offset=-3 / threads=6 / lookahead_threads=1 / sliced_threads=0 / nr=0 / decimate=0 / interlaced=0 / bluray_compat=0 / constrained_intra=0 / bframes=10 / b_pyramid=2 / b_adapt=2 / b_bias=0 / direct=3 / weightb=1 / open_gop=0 / weightp=2 / keyint=240 / keyint_min=23 / scenecut=40 / intra_refresh=0 / rc_lookahead=40 / rc=2pass / mbtree=0 / bitrate=1680 / ratetol=1.0 / qcomp=0.60 / qpmin=0 / qpmax=69 / qpstep=4 / cplxblur=20.0 / qblur=0.5 / vbv_maxrate=50000 / vbv_bufsize=62500 / nal_hrd=none / filler=0 / ip_ratio=1.40 / pb_ratio=1.30 / aq=1:1.00
Язык : English
Default : Да
Forced : Нет

Аудио #1
Идентификатор : 2
Формат : AC-3
Формат/Информация : Audio Coding 3
Расширение режима : CM (complete main)
Параметр Endianness формата : Big
Идентификатор кодека : A_AC3
Продолжительность : 1 ч. 40 м.
Вид битрейта : Постоянный
Битрейт : 384 Кбит/сек
Каналы : 6 каналов
Расположение каналов : Front: L C R, Side: L R, LFE
Частота : 48,0 КГц
Частота кадров : 31,250 кадров/сек (1536 spf)
Битовая глубина : 16 бит
Метод сжатия : С потерями
Размер потока : 277 Мбайт (14%)
Заголовок : iTunes
Язык : Russian
Default : Нет
Forced : Нет

Аудио #2
Идентификатор : 3
Формат : AC-3
Формат/Информация : Audio Coding 3
Расширение режима : CM (complete main)
Параметр Endianness формата : Big
Идентификатор кодека : A_AC3
Продолжительность : 1 ч. 40 м.
Вид битрейта : Постоянный
Битрейт : 448 Кбит/сек
Каналы : 6 каналов
Расположение каналов : Front: L C R, Side: L R, LFE
Частота : 48,0 КГц
Частота кадров : 31,250 кадров/сек (1536 spf)
Битовая глубина : 16 бит
Метод сжатия : С потерями
Размер потока : 323 Мбайт (17%)
Заголовок : Original
Язык : English
Default : Нет
Forced : Нет

Аудио #3
Идентификатор : 4
Формат : AC-3
Формат/Информация : Audio Coding 3
Расширение режима : CM (complete main)
Параметр Endianness формата : Big
Идентификатор кодека : A_AC3
Продолжительность : 1 ч. 40 м.
Вид битрейта : Постоянный
Битрейт : 192 Кбит/сек
Каналы : 2 канала
Расположение каналов : Front: L R
Частота : 48,0 КГц
Частота кадров : 31,250 кадров/сек (1536 spf)
Битовая глубина : 16 бит
Метод сжатия : С потерями
Размер потока : 138 Мбайт (7%)
Заголовок : iTunes
Язык : Ukrainian
Default : Нет
Forced : Нет

Текст #1
Идентификатор : 5
Формат : UTF-8
Идентификатор кодека : S_TEXT/UTF8
Идентификатор кодека/Информация : UTF-8 Plain Text
Заголовок : Forced
Язык : Russian
Default : Нет
Forced : Нет

Текст #2
Идентификатор : 6
Формат : UTF-8
Идентификатор кодека : S_TEXT/UTF8
Идентификатор кодека/Информация : UTF-8 Plain Text
Язык : Russian
Default : Нет
Forced : Нет

Текст #3
Идентификатор : 7
Формат : UTF-8
Идентификатор кодека : S_TEXT/UTF8
Идентификатор кодека/Информация : UTF-8 Plain Text
Язык : English
Default : Нет
Forced : Нет

Текст #4
Идентификатор : 8
Формат : UTF-8
Идентификатор кодека : S_TEXT/UTF8
Идентификатор кодека/Информация : UTF-8 Plain Text
Заголовок : SDH
Язык : English
Default : Нет
Forced : Нет

Меню
00:00:00.000 : en:Chapter 01
00:04:44.117 : en:Chapter 02
00:08:05.276 : en:Chapter 03
00:15:19.209 : en:Chapter 04
00:25:46.294 : en:Chapter 05
00:34:27.023 : en:Chapter 06
00:39:51.097 : en:Chapter 07
00:43:10.963 : en:Chapter 08
00:46:26.617 : en:Chapter 09
00:49:09.529 : en:Chapter 10
00:53:44.471 : en:Chapter 11
00:59:37.657 : en:Chapter 12
01:02:53.895 : en:Chapter 13
01:11:56.645 : en:Chapter 14
01:22:55.679 : en:Chapter 15
01:30:57.952 : en:Chapter 16

pb.wtf



Скачать Очень плохие девчонки через торрент http://lostpix.com/img/2017-08/23/tcy2q5dk9u5aidoi2d0p4svqo.jpg Скачать фильм Очень плохие девчонки через торрент бесплантно в хорошем качестве Описание: Что может омрачить развеселый и безбашенный девичник в Майами? Наверное, только нелепая смерть стриптизера. Теперь подружкам ... 9.7 10 26
Info! Золотая раздача, скачанное не засчитывается.
Торрент: Зарегистрирован [2017-08-24 04:56] · скачан: 1 876 раз
Статус: √ проверено
Размер: 1.91 GB
Как cкачать? Как скачать Очень плохие девчонки через торрент | UTorrent

% Раздел Тема Автор DL S | L
Ultra HD (UHD: 2K, 4K, 8K) — видео сверхвысокой чёткости [ 18.36 GB ] Очень плохие девчонки / Rough Night [2017 UHD BDRip 2160p] DUB [ Blu-ray CEE] bober100 Скачать
1 | 0
Фильмы 2017 [DVDrip, WEB-DLRip, HDrip] (DUB, MVO) [ 2.05 GB ] Очень плохие девчонки / Rough Night [2017 BDRip] bober100 Скачать
1 | 0
Ultra HD (UHD: 2K, 4K, 8K) — видео сверхвысокой чёткости [ 50.22 GB ] Очень плохие девчонки / Rough Night [2017 UHD Blu-ray EUR 2160p] sheker187 Скачать
1 | 0
Ultra HD (UHD: 2K, 4K, 8K) — видео сверхвысокой чёткости [ 41.77 GB ] Очень плохие девчонки / Rough Night [2017 UHD BDRemux 2160p] DUB [ Blu-ray CEE] bober100 Скачать
1 | 0
Фильмы 2017 [DVDrip, WEB-DLRip, HDrip] (DUB, MVO) [ 745 MB ] Очень плохие девчонки / Rough Night [2017 BDRip] bober100 Скачать
1 | 0
Фильмы 2017 [DVDrip, WEB-DLRip, HDrip] (DUB, MVO) [ 1.46 GB ] Очень плохие девчонки / Rough Night [2017 BDRip] - [] Twi7ter Скачать
1 | 0
Фильмы [HD 720p, 1080p] (Хороший звук DUB, MVO) [ 9.76 GB ] Очень плохие девчонки / Rough Night [2017 BDRip 1080p] DUB [ Blu-ray CEE] bober100 Скачать
1 | 0

28-11-2019 20:33  

Отключить всю рекламу на сайте

24-08-2017 15:10 Очень плохие девчонки Скачать торрент  

да уж...Скарлет...фигурка как у Герасима из деревниpb.wtf



26-08-2017 15:24 Очень плохие девчонки Скачать торрент  

Спасибо за укр. озвучку, ОГОНЬ! Побольше бы фильмов с укр озвучкой!pb.wtf



08-09-2017 13:31 Очень плохие девчонки Скачать торрент  

Так себе ,если делать совсем нечего можно и посмотреть а так не советуюpb.wtf



16-09-2017 18:51 Очень плохие девчонки Скачать торрент  

полный шлакpb.wtf



    Дорогой пользователь! Огромная просьба, поблагодарите релизера, оцените раздачу и оставьте свои комментарий, если Вы скачали Очень плохие девчонки через торрент бесплатно! Внесите свою лепту в развитие PiratBit!
    Комментировать посты могут только пользователи прошедшие не сложную регистрацию
    Показать сообщения:    

    Очень плохие девчонки через торрент
    Скачать бесплатно Очень плохие девчонки
    Очень плохие девчонки скачать торрент
    Очень плохие девчонки смотреть онлайн
    Cкачать фильм Очень плохие девчонки бесплатно
    Очень плохие девчонки скачать торрент в хорошем качестве
    Очень плохие девчонки смотреть онлайн бесплатно в хорошем качестве


    Вы не можете начинать темы
    Вы не можете отвечать на сообщения
    Вы не можете редактировать свои сообщения
    Вы не можете удалять свои сообщения
    Вы не можете голосовать в опросах
    Вы не можете прикреплять файлы к сообщениям
    Вы можете скачивать файлы