новый адрес
Мега распродажа FORZA HORIZON 4 ULTIMATE+ВСЕ DLC+ОНЛАЙН всего за 499р. 349 руб. (супер цена). Внимание количество ограничено!!!

iTunes

1+1

iTunes

мы

iTunes

1

iTunes

Чернобыль

iTunes

Ральф против интернета

Лицензия

ПШазам

Лицензия

Игра престолов

Лицензия

30
pack

ВАЖНО

!!Акция!!

Alien_RageХит недели

RePack

Resident Evil 21

ИГРА 18+

pack

RePack

Metro:Exodus

!!Акция!!

Alien_Rage

RePack

fifa19

RePack

Assassins Creed: Odyssey

RePack

NEED FOR SPEED™ PAYBACK

3 сезон

9 сезон

Бесстыжие 9 сезон

Все сериалы

все сериалы на PB.wtf

RePack

FAR CRY 5
Ребята, катастрофически не хватает 1900р. для оплаты серверов за Октябрь (всвязи с блокировками трафик упал в 3 раза), 1-2р., выручайте.
  

Короткометражки: Дом напротив (Аян Шахмалиева) / Ведьма (Александр Абрамов) [1958, СССР, короткометражка, драма, SATRip от AVP Studio] pb.wtf

Короткометражки: Дом напротив через торрент pb.wtf

Размер: 745 MB | Добавлен: 2 года 2 мес. назад | Торрент скачан:23 раза
Скачать  

24-08-2017 08:00 Короткометражки: Дом напротив Скачать торрент  

Короткометражки
Страна: СССР
Производство: Ленфильм

Жанр: короткометражка, драма
Год выпуска: 1958
Продолжительность: 00:29:07, 00:29:13

Перевод: Не требуется
Cубтитры: нет
Оригинальная аудиодорожка: русский

Режиссер: Аян Шахмалиева, Александр Абрамов

В ролях:
Дом напротив
Глеб Селянин, Галина Дунаева, Людмила Касьянова, Степан Крылов, Георгий Унанян, Александр Орлов, Ольга Аверичева...
Об актёрах подробней
Ведьма
Эраст Гарин, Алла Ларионова, Николай Рыбников...
Об актёрах подробней

Описание:
Дом напротив
Шофер Вася, лежащий в больнице с тяжелыми переломами, не верит в возможность выздоровления. Он отказывается от лекарств, грубит медсестре Алевтине Валерьяновне. Особую тоску наводит на него полуразвалившийся дом напротив. Но вот однажды приходят рабочие, разбирают развалины и начинают строить новый дом. Переговариваясь со строителями и наблюдая за их работой, Вася начинает оживать. Особенно этому помогают шутки молодой каменщицы. Но однажды девушка не пришла на работу. Не было её и в последующие дни. Вася опять захандрил. И тут случается чудо: девушка сама приходит к нему в палату. Она объясняет, что её перевели на другой объект. Тася обещает Васе часто навещать его. Приободрившийся парень быстро набирается сил. Теперь уже он спокойно узнает, что Тася - совсем не та девушка, которую он приметил на стройке. Она - младшая сестра Алевтины Валерьяновны. Проходит время, Вася выздоравливает. Его дружба с Тасей продолжается.
Ведьма
В далёкой сторожке живут двое - грязный, обросший дьячок Савелий и его жена Раиса - молодая, красивая женщина. Дьячок мучает свою жену дикой, нелепой ревностью. Сцены ревности становятся особенно невыносимыми, когда начинает кружить метель. Это ворожит она - "ведьма". Каждый раз, как кровь в ней начинает играть, так и непогода, а как непогода, так и несёт к ним какого-нибудь безумца - то масетра, то охотника, то писаря... И всё молодые... Вот и теперь наворожила. В сторожку входит облепленный снегом, замерзший, измученный ужасной дорогой почтальон.

Источник: DVB
Качество видео: SATRip
Формат видео: AVI

Видео: 704x528 (4:3), 25 fps, XviD ~ 1585 kbps avg, 0.171 bit/pixel
Аудио: 48 kHz, Dolby Digital AC3 2.0, 192 kbps

Раздача от:
Общее
Полное имя : Korotkometrazhki.1958.SATRip_[New-team]_by_AVP_Studio.avi
Формат : AVI
Формат/Информация : Audio Video Interleave
Размер файла : 372 Мбайт
Продолжительность : 29 м. 7 с.
Общий поток : 1786 Кбит/сек
Программа кодирования : VirtualDubMod 1.5.10.3 | www.virtualdub-fr.org || (build 2550/release)
Библиотека кодирования : VirtualDubMod build 2550/release

Видео
Идентификатор : 0
Формат : MPEG-4 Visual
Профиль формата : Advanced Simple@L5
Параметр BVOP формата : 1
Параметр QPel формата : Нет
Параметр GMC формата : Без точки перехода
Параметр матрицы формата : Выборочная
Идентификатор кодека : XVID
Идентификатор кодека/Подсказка : XviD
Продолжительность : 29 м. 7 с.
Битрейт : 1585 Кбит/сек
Ширина : 704 пикселя
Высота : 528 пикселей
Соотношение сторон : 4:3
Частота кадров : 25,000 кадров/сек
Цветовое пространство : YUV
Субдискретизация насыщенности : 4:2:0
Битовая глубина : 8 бит
Тип развёртки : Прогрессивная
Метод сжатия : С потерями
Бит/(Пиксели*Кадры) : 0.171
Размер потока : 330 Мбайт (89%)
Библиотека кодирования : XviD 73

Аудио
Идентификатор : 1
Формат : AC-3
Формат/Информация : Audio Coding 3
Параметр Endianness формата : Big
Идентификатор кодека : 2000
Продолжительность : 29 м. 7 с.
Вид битрейта : Постоянный
Битрейт : 192 Кбит/сек
Каналы : 2 канала
Расположение каналов : Front: L R
Частота : 48,0 КГц
Частота кадров : 31,250 кадров/сек (1536 SPF)
Битовая глубина : 16 бит
Метод сжатия : С потерями
Размер потока : 40,0 Мбайт (11%)
Выравнивание : Разделение по промежуткам
Продолжительность промежутка : 40 мс. (1,00 видеокадр)
Время предзагрузки промежутка : 500 мс
pb.wtf



Скачать Короткометражки: Дом напротив через торрент http://s010.radikal.ru/i311/1708/29/4e5523859d58.png Скачать фильм Короткометражки: Дом напротив через торрент бесплантно в хорошем качестве Описание:Дом напротивШофер Вася, лежащий в больнице с тяжелыми переломами, не верит в возможность выздоровления. Он отказывается от ... 10 10 2
Info! Золотая раздача, скачанное не засчитывается.
Торрент: Зарегистрирован [2017-08-24 08:00] · скачан: 23 раз
Статус: √ проверено
Размер: 745 MB
Как cкачать? Как скачать Короткометражки: Дом напротив через торрент | qTorrent

% Раздел Тема Автор DL S | L
Кино СССР [ 745 MB ] Короткометражки: Дом напротив / Ведьма [1958 СССР короткометражка SATRip-AVC от AVP Studio] AVP Studio Скачать
1 | 0


>> Регистрируемся здесь <<






Отзывы и комментарии о схеме читаем и пишем здесь: ---> Отзывы и комментарии о схеме

Новые благодарочки в телеграм довольных пользователей:
скриншот   скриншот   скриншот   скриншот   скриншот
    Дорогой пользователь! Огромная просьба, поблагодарите релизера, оцените раздачу и оставьте свои комментарий, если Вы скачали Короткометражки: Дом напротив через торрент бесплатно! Внесите свою лепту в развитие PiratBit!
    Комментировать посты могут только пользователи прошедшие не сложную регистрацию
    Показать сообщения:    

    Короткометражки: Дом напротив через торрент
    Скачать бесплатно Короткометражки: Дом напротив
    Короткометражки: Дом напротив скачать торрент
    Короткометражки: Дом напротив смотреть онлайн
    Cкачать фильм Короткометражки: Дом напротив бесплатно
    Короткометражки: Дом напротив скачать торрент в хорошем качестве
    Короткометражки: Дом напротив смотреть онлайн бесплатно в хорошем качестве


    Вы не можете начинать темы
    Вы не можете отвечать на сообщения
    Вы не можете редактировать свои сообщения
    Вы не можете удалять свои сообщения
    Вы не можете голосовать в опросах
    Вы не можете прикреплять файлы к сообщениям
    Вы можете скачивать файлы