новый адрес
Ссылка на приватное зеркало всего за 1$. Внимание количество ограничено!!!

iTunes

1+1

iTunes

мы

iTunes

1

iTunes

Чернобыль

iTunes

Ральф против интернета

Лицензия

ПШазам

Лицензия

Оно 2

Лицензия

30
pack

Вам бонус

ВАЖНО

!!Акция!!

Alien_RageХит недели

RePack

Resident Evil 21

ИГРА 18+

pack

RePack

jed

!!Акция!!

Alien_Rage

RePack

fifa19

RePack

Assassins Creed: Odyssey

RePack

NEED FOR SPEED™ PAYBACK

3 сезон

9 сезон

Бесстыжие 9 сезон

Все сериалы

все сериалы на PB.wtf

RePack

FAR CRY 5
Ребята, катастрофически не хватает 1900р. для оплаты серверов за Октябрь (всвязи с блокировками трафик упал в 3 раза), 1-2р., выручайте.
  

Короткометражки: Дом напротив (Аян Шахмалиева) / Ведьма (Александр Абрамов) [1958, СССР, короткометражка, драма, SATRip-AVC от AVP Studio] pb.wtf

Короткометражки: Дом напротив через торрент pb.wtf

Размер: 745 MB | Добавлен: 2 года 2 мес. назад | Торрент скачан:26 раз
Скачать  

24-08-2017 08:01 Короткометражки: Дом напротив Скачать торрент  

Короткометражки
Страна: СССР
Производство: Ленфильм

Жанр: короткометражка, драма
Год выпуска: 1958
Продолжительность: 00:29:07, 00:29:13

Перевод: Не требуется
Cубтитры: нет
Оригинальная аудиодорожка: русский

Режиссер: Аян Шахмалиева, Александр Абрамов

В ролях:
Дом напротив
Глеб Селянин, Галина Дунаева, Людмила Касьянова, Степан Крылов, Георгий Унанян, Александр Орлов, Ольга Аверичева...
Об актёрах подробней
Ведьма
Эраст Гарин, Алла Ларионова, Николай Рыбников...
Об актёрах подробней

Описание:
Дом напротив
Шофер Вася, лежащий в больнице с тяжелыми переломами, не верит в возможность выздоровления. Он отказывается от лекарств, грубит медсестре Алевтине Валерьяновне. Особую тоску наводит на него полуразвалившийся дом напротив. Но вот однажды приходят рабочие, разбирают развалины и начинают строить новый дом. Переговариваясь со строителями и наблюдая за их работой, Вася начинает оживать. Особенно этому помогают шутки молодой каменщицы. Но однажды девушка не пришла на работу. Не было её и в последующие дни. Вася опять захандрил. И тут случается чудо: девушка сама приходит к нему в палату. Она объясняет, что её перевели на другой объект. Тася обещает Васе часто навещать его. Приободрившийся парень быстро набирается сил. Теперь уже он спокойно узнает, что Тася - совсем не та девушка, которую он приметил на стройке. Она - младшая сестра Алевтины Валерьяновны. Проходит время, Вася выздоравливает. Его дружба с Тасей продолжается.
Ведьма
В далёкой сторожке живут двое - грязный, обросший дьячок Савелий и его жена Раиса - молодая, красивая женщина. Дьячок мучает свою жену дикой, нелепой ревностью. Сцены ревности становятся особенно невыносимыми, когда начинает кружить метель. Это ворожит она - "ведьма". Каждый раз, как кровь в ней начинает играть, так и непогода, а как непогода, так и несёт к ним какого-нибудь безумца - то масетра, то охотника, то писаря... И всё молодые... Вот и теперь наворожила. В сторожку входит облепленный снегом, замерзший, измученный ужасной дорогой почтальон.

Источник: DVB
Качество видео: SATRip-AVC
Формат видео: MKV

Видео: 712->762x572 (4:3), 25 fps, H264 ~ 1591 kbps avg, 0.156 bit/pixel
Аудио: 48 kHz, Dolby Digital AC3 2.0, 192 kbps

Раздача от:
Общее
Полное имя : Korotkometrazhki.1958.SATRip-AVC_[New-team]_by_AVP_Studio.mkv
Формат : Matroska
Версия формата : Version 2
Размер файла : 372 Мбайт
Продолжительность : 29 м. 7 с.
Общий поток : 1785 Кбит/сек
Дата кодирования : UTC 2017-08-21 12:39:53
Программа кодирования : mkvmerge v6.1.0 ('Old Devil') built on Mar 4 2013 09:10:42
Библиотека кодирования : libebml v1.3.0 + libmatroska v1.4.0

Видео
Идентификатор : 1
Формат : AVC
Формат/Информация : Advanced Video Codec
Профиль формата : High@L4.1
Параметр CABAC формата : Да
Параметр RefFrames формата : 10 кадров
Идентификатор кодека : V_MPEG4/ISO/AVC
Продолжительность : 29 м. 7 с.
Битрейт : 1591 Кбит/сек
Ширина : 712 пикселей
Высота : 572 пикселя
Соотношение сторон : 4:3
Режим частоты кадров : Постоянный
Частота кадров : 25,000 кадров/сек
Цветовое пространство : YUV
Субдискретизация насыщенности : 4:2:0
Битовая глубина : 8 бит
Тип развёртки : Прогрессивная
Бит/(Пиксели*Кадры) : 0.156
Размер потока : 324 Мбайт (87%)
Библиотека кодирования : x264 core 130 r2273 b3065e6
Настройки программы : cabac=1 / ref=10 / deblock=1:-2:-1 / analyse=0x3:0x113 / me=umh / subme=10 / psy=1 / psy_rd=1.00:0.00 / mixed_ref=1 / me_range=32 / chroma_me=1 / trellis=2 / 8x8dct=1 / cqm=0 / deadzone=21,11 / fast_pskip=1 / chroma_qp_offset=-2 / threads=6 / lookahead_threads=1 / sliced_threads=0 / nr=0 / decimate=0 / interlaced=0 / bluray_compat=0 / constrained_intra=0 / bframes=8 / b_pyramid=2 / b_adapt=2 / b_bias=0 / direct=3 / weightb=1 / open_gop=0 / weightp=2 / keyint=250 / keyint_min=25 / scenecut=40 / intra_refresh=0 / rc=2pass / mbtree=0 / bitrate=1591 / ratetol=1.0 / qcomp=0.60 / qpmin=0 / qpmax=69 / qpstep=4 / cplxblur=20.0 / qblur=0.5 / ip_ratio=1.40 / pb_ratio=1.30 / aq=1:1.00
Default : Да
Forced : Нет

Аудио
Идентификатор : 2
Формат : AC-3
Формат/Информация : Audio Coding 3
Параметр Endianness формата : Big
Идентификатор кодека : A_AC3
Продолжительность : 29 м. 7 с.
Вид битрейта : Постоянный
Битрейт : 192 Кбит/сек
Каналы : 2 канала
Расположение каналов : Front: L R
Частота : 48,0 КГц
Частота кадров : 31,250 кадров/сек (1536 SPF)
Битовая глубина : 16 бит
Метод сжатия : С потерями
Размер потока : 40,0 Мбайт (11%)
Default : Да
Forced : Нет
pb.wtf



Скачать Короткометражки: Дом напротив через торрент http://s010.radikal.ru/i311/1708/29/4e5523859d58.png Скачать фильм Короткометражки: Дом напротив через торрент бесплантно в хорошем качестве Описание:Дом напротивШофер Вася, лежащий в больнице с тяжелыми переломами, не верит в возможность выздоровления. Он отказывается от ... 10 10 2
Info! Золотая раздача, скачанное не засчитывается.
Торрент: Зарегистрирован [2017-08-24 08:01] · скачан: 26 раз
Статус: √ проверено
Размер: 745 MB
Как cкачать? Как скачать Короткометражки: Дом напротив через торрент | qTorrent

% Раздел Тема Автор DL S | L
Кино СССР [ 745 MB ] Короткометражки: Дом напротив / Ведьма [1958 СССР короткометражка SATRip от AVP Studio] AVP Studio Скачать
1 | 0
    Дорогой пользователь! Огромная просьба, поблагодарите релизера, оцените раздачу и оставьте свои комментарий, если Вы скачали Короткометражки: Дом напротив через торрент бесплатно! Внесите свою лепту в развитие PiratBit!
    Комментировать посты могут только пользователи прошедшие не сложную регистрацию
    Показать сообщения:    

    Короткометражки: Дом напротив через торрент
    Скачать бесплатно Короткометражки: Дом напротив
    Короткометражки: Дом напротив скачать торрент
    Короткометражки: Дом напротив смотреть онлайн
    Cкачать фильм Короткометражки: Дом напротив бесплатно
    Короткометражки: Дом напротив скачать торрент в хорошем качестве
    Короткометражки: Дом напротив смотреть онлайн бесплатно в хорошем качестве


    Вы не можете начинать темы
    Вы не можете отвечать на сообщения
    Вы не можете редактировать свои сообщения
    Вы не можете удалять свои сообщения
    Вы не можете голосовать в опросах
    Вы не можете прикреплять файлы к сообщениям
    Вы можете скачивать файлы