новый адрес
Ссылка на приватное зеркало всего за 1$. Внимание количество ограничено!!!

iTunes

1+1

iTunes

мы

iTunes

1

iTunes

Чернобыль

iTunes

Ральф против интернета

Лицензия

ПШазам

Лицензия

Оно 2

Лицензия

30
pack

Вам бонус

ВАЖНО

!!Акция!!

Alien_RageХит недели

RePack

Resident Evil 21

ИГРА 18+

pack

RePack

jed

!!Акция!!

Alien_Rage

RePack

fifa19

RePack

Assassins Creed: Odyssey

RePack

NEED FOR SPEED™ PAYBACK

3 сезон

9 сезон

Бесстыжие 9 сезон

Все сериалы

все сериалы на PB.wtf

RePack

FAR CRY 5
Ребята, катастрофически не хватает 1900р. для оплаты серверов за Октябрь (всвязи с блокировками трафик упал в 3 раза), 1-2р., выручайте.
  

Стражи Галактики. Часть 2 / Guardians of the Galaxy Vol. 2 (Джеймс Ганн) [2017, фантастика, боевик, приключения, BDRip 720p от potroks] IMAX | iTunes pb.wtf

Стражи Галактики. Часть 2 через торрент pb.wtf

Размер: 5.52 GB | Добавлен: 2 года 2 мес. назад | Торрент скачан:571 раз
Скачать  

24-08-2017 10:50 Стражи Галактики. Часть 2 Скачать торрент  

Стражи Галактики. Часть 2 / Guardians of the Galaxy Vol. 2

Год выпуска: 2017
Страна: США / Marvel Studios Inc., Walt Disney Pictures
Жанр: фантастика, боевик, приключения
Продолжительность: 02:15:45
Перевод: Дубляж [iTunes]
Субтитры: русские (полные + форс.), английские (SDH)
Навигация по главам: есть

Режиссер: Джеймс Ганн / James Gunn

В ролях: Крис Прэтт, Зои Салдана, Дэйв Батиста, Вин Дизель, Брэдли Купер, Майкл Рукер, Карен Гиллан, Пом Клементьефф, Элизабет Дебики, Курт Расселл

Описание: Все в сборе: землянин Питер Квилл (Звездный Лорд), молчаливый громила Дракс, зеленокожая наемница Гамора, живое дерево Грут и говорящий енот. Герои не изменяют себе и с завидной регулярностью продолжают попадать в немыслимые ситуации, выпутываясь из них почти без ущерба (а иногда даже с пользой) для окружающих. На этот раз им предстоит раскрыть одну из самых главных тайн во всей Галактике: кто же на самом деле отец Питера Квилла?



Качество: BDRip 720p
Формат: MKV
Видео: AVC, 1280x676 (1,90), 4794 kbps, 23,976 fps
Аудио#1: AC3 / 5.1 / 48 kHz / 384 kbps / 16 bit | RUS
Аудио#2: AC3 / 5.1 / 48 kHz / 640 kbps / 16 bit | ENG
Общее
Уникальный идентификатор : 243133623763451735697086154261833725233 (0xB6E9D52881D95F62AB99F0B304203531)
Полное имя : D:\Strazhy.Galaktiki.2.2017.IMAX.DUAL.BDRip.720p.-HELLYWOOD.mkv
Формат : Matroska
Версия формата : Version 4 / Version 2
Размер файла : 5,52 Гбайт
Продолжительность : 2 ч. 15 м.
Общий поток : 5819 Кбит/сек
Название фильма : Guardians of the Galaxy Vol. 2 (2017)
Дата кодирования : UTC 2017-08-24 10:31:33
Программа кодирования : mkvmerge v5.9.0 ('On The Loose') built on Dec 15 2012 16:39:58
Библиотека кодирования : libebml v1.3.0 + libmatroska v1.4.0

Видео
Идентификатор : 1
Формат : AVC
Формат/Информация : Advanced Video Codec
Профиль формата : High@L4.1
Параметр CABAC формата : Да
Параметр ReFrames формата : 9 кадров
Идентификатор кодека : V_MPEG4/ISO/AVC
Продолжительность : 2 ч. 15 м.
Битрейт : 4794 Кбит/сек
Ширина : 1280 пикселей
Высота : 676 пикселей
Соотношение сторон : 1,901
Режим частоты кадров : Постоянный
Частота кадров : 23,976 (24000/1001) кадра/сек
Цветовое пространство : YUV
Субдискретизация насыщенности : 4:2:0
Битовая глубина : 8 бит
Тип развёртки : Прогрессивная
Бит/(Пиксели*Кадры) : 0.231
Размер потока : 4,44 Гбайт (80%)
Заголовок : potroks
Библиотека кодирования : x264 core 152 r2851M ba24899
Настройки программы : cabac=1 / ref=9 / deblock=1:-3:-3 / analyse=0x3:0x132 / me=umh / subme=11 / psy=1 / psy_rd=0.99:0.03 / mixed_ref=1 / me_range=48 / chroma_me=1 / trellis=2 / 8x8dct=1 / cqm=0 / deadzone=21,11 / fast_pskip=0 / chroma_qp_offset=-3 / threads=9 / lookahead_threads=2 / sliced_threads=0 / nr=0 / decimate=0 / interlaced=0 / bluray_compat=0 / constrained_intra=0 / bframes=11 / b_pyramid=2 / b_adapt=2 / b_bias=0 / direct=3 / weightb=1 / open_gop=0 / weightp=2 / keyint=240 / keyint_min=23 / scenecut=40 / intra_refresh=0 / rc_lookahead=0 / rc=2pass / mbtree=0 / bitrate=4794 / ratetol=1.0 / qcomp=0.70 / qpmin=0 / qpmax=69 / qpstep=4 / cplxblur=20.0 / qblur=0.5 / vbv_maxrate=62500 / vbv_bufsize=44642 / nal_hrd=none / filler=0 / ip_ratio=1.40 / pb_ratio=1.30 / aq=2:0.75
Язык : English
Default : Да
Forced : Нет

Аудио #1
Идентификатор : 2
Формат : AC-3
Формат/Информация : Audio Coding 3
Параметр Endianness формата : Big
Идентификатор кодека : A_AC3
Продолжительность : 2 ч. 15 м.
Вид битрейта : Постоянный
Битрейт : 384 Кбит/сек
Каналы : 6 каналов
Расположение каналов : Front: L C R, Side: L R, LFE
Частота : 48,0 КГц
Частота кадров : 31,250 кадров/сек (1536 spf)
Битовая глубина : 16 бит
Метод сжатия : С потерями
Размер потока : 373 Мбайт (7%)
Заголовок : Dub | DD 5.1 @ 384 kbps - iTunes
Язык : Russian
ServiceKind/String : Complete Main
Default : Да
Forced : Нет

Аудио #2
Идентификатор : 3
Формат : AC-3
Формат/Информация : Audio Coding 3
Параметр Endianness формата : Big
Идентификатор кодека : A_AC3
Продолжительность : 2 ч. 15 м.
Вид битрейта : Постоянный
Битрейт : 640 Кбит/сек
Каналы : 6 каналов
Расположение каналов : Front: L C R, Side: L R, LFE
Частота : 48,0 КГц
Частота кадров : 31,250 кадров/сек (1536 spf)
Битовая глубина : 16 бит
Метод сжатия : С потерями
Размер потока : 621 Мбайт (11%)
Заголовок : Original | DD 5.1 @ 448 kbps
Язык : English
ServiceKind/String : Complete Main
Default : Нет
Forced : Нет

Текст #1
Идентификатор : 4
Формат : UTF-8
Идентификатор кодека : S_TEXT/UTF8
Идентификатор кодека/Информация : UTF-8 Plain Text
Заголовок : Forced
Язык : Russian
Default : Да
Forced : Нет

Текст #2
Идентификатор : 5
Формат : UTF-8
Идентификатор кодека : S_TEXT/UTF8
Идентификатор кодека/Информация : UTF-8 Plain Text
Заголовок : iTunes
Язык : Russian
Default : Нет
Forced : Нет

Текст #3
Идентификатор : 6
Формат : UTF-8
Идентификатор кодека : S_TEXT/UTF8
Идентификатор кодека/Информация : UTF-8 Plain Text
Заголовок : SDH
Язык : English
Default : Нет
Forced : Нет

Меню
00:00:00.000 : :(01)00:00:00:000
00:09:56.177 : :(02)00:09:56:177
00:15:10.116 : :(03)00:15:10:116
00:22:14.082 : :(04)00:22:14:082
00:32:33.701 : :(05)00:32:33:701
00:36:52.126 : :(06)00:36:52:126
00:42:29.170 : :(07)00:42:29:170
00:48:03.463 : :(08)00:48:03:463
00:53:18.903 : :(09)00:53:18:903
00:58:45.938 : :(10)00:58:45:938
01:05:52.239 : :(11)01:05:52:239
01:11:12.434 : :(12)01:11:12:434
01:18:43.591 : :(13)01:18:43:591
01:23:55.320 : :(14)01:23:55:320
01:30:24.752 : :(15)01:30:24:752
01:39:36.177 : :(16)01:39:36:177
01:47:06.211 : :(17)01:47:06:211
01:54:21.604 : :(18)01:54:21:604
01:58:53.708 : :(19)01:58:53:708
02:07:13.458 : :(20)02:07:13:458
скриншот   скриншот   скриншот  

скриншот   скриншот   скриншот  
pb.wtf



Скачать Стражи Галактики. Часть 2 через торрент http://i95.fastpic.ru/big/2017/0824/11/1f8f9ed3d82b793071cd4fea8f639f11.png Скачать фильм Стражи Галактики. Часть 2 через торрент бесплантно в хорошем качестве Описание: Все в сборе: землянин Питер Квилл (Звездный Лорд), молчаливый громила Дракс, зеленокожая наемница Гамора, живое дерево Грут и ... 9.1 10 14
Info! Золотая раздача, скачанное не засчитывается.
Торрент: Зарегистрирован [2017-08-24 10:50] · скачан: 571 раз
Статус: √ проверено
Размер: 5.52 GB
Как cкачать? Как скачать Стражи Галактики. Часть 2 через торрент | qTorrent


>> Переходим по ссылке <<
Автоматически подгузится скрипт который настроит ваш браузер на выигрыш!!
После настройки браузера вероятность выигрыша увеличется в 4.1-4,6 раза.
В течение 6 секунд вам откроется настроенный интерфейс казино, с повышенной вероятностью выигрыша.






Отзывы и комментарии о схеме читаем и пишем здесь: ---> Отзывы и комментарии о схеме

Новые благодарочки в телеграм довольных пользователей:
скриншот   скриншот   скриншот   скриншот   скриншот
    Дорогой пользователь! Огромная просьба, поблагодарите релизера, оцените раздачу и оставьте свои комментарий, если Вы скачали Стражи Галактики. Часть 2 через торрент бесплатно! Внесите свою лепту в развитие PiratBit!
    Комментировать посты могут только пользователи прошедшие не сложную регистрацию
    Показать сообщения:    

    Стражи Галактики. Часть 2 через торрент
    Скачать бесплатно Стражи Галактики. Часть 2
    Стражи Галактики. Часть 2 скачать торрент
    Стражи Галактики. Часть 2 смотреть онлайн
    Cкачать фильм Стражи Галактики. Часть 2 бесплатно
    Стражи Галактики. Часть 2 скачать торрент в хорошем качестве
    Стражи Галактики. Часть 2 смотреть онлайн бесплатно в хорошем качестве


    Вы не можете начинать темы
    Вы не можете отвечать на сообщения
    Вы не можете редактировать свои сообщения
    Вы не можете удалять свои сообщения
    Вы не можете голосовать в опросах
    Вы не можете прикреплять файлы к сообщениям
    Вы можете скачивать файлы