Ссылка на приватное зеркало нашего сайта всего за 1$. Внимание количество ограничено!!!

2 сезон

iTunes

1 сезон

1

iTunes

iTunes

iTunes

1 сезон

RePack

30

ИГРА 18+

pack

ВАЖНО

!!Акция!!

Alien_RageХит недели

RePack

MK11
pack

Забери бонус

RePack

jed

!!Акция!!

Alien_Rage

RePack

fifa19

RePack

Assassins Creed: Odyssey

RePack

NEED FOR SPEED™ PAYBACK

4 сезон

9 сезон

Бесстыжие 9 сезон

Все сериалы

все сериалы на PB.wtf

RePack

FAR CRY 5
  

Призраки / Wind Chill (Грегори Джейкобс) [2007, ужасы, триллер, драма, BDRip 1080p] MVO pb.wtf

Призраки через торрент pb.wtf

Размер: 6.8 GB | Добавлен: 3 года 2 мес. назад | Торрент скачан:278 раз
Скачать  

24-08-2017 16:14 Призраки Скачать торрент  

Призраки / Wind ChillГод выпуска: 2007
Страна: США, Великобритания
Жанр: ужасы, триллер, драма
Продолжительность: 01:30:45
Перевод: Профессиональный (многоголосый)
Субтитры: английские

Режиссер: Грегори Джейкобс

rating

В ролях:

Эмили Блант, Эштон Холмс, Мартин Донован, Нед Беллами, Йен А. Уоллес, Донни Джеймс Лукас, Челан Симмонс, Даррен Мур, Линден Бэнкс, Каз Один Дарко, ...

Описание:

Пара студентов, поехав домой на каникулы, решает воспользоваться дорогой, явно не пользующейся большой популярностью. Увы, слишком поздно герои вспоминают, что не следует доверять коротким, но заброшенным путям…

Качество: BDRip 1080p
Формат: MKV
Видео кодек: H.264
Аудио кодек: AC3

Видео: 1920x800, 9960 kbps, 23,976 fps
Аудио#1: AC-3, 6 ch, 384 kbps (Rus) - MVO
Аудио#2: AC-3, 6 ch, 384 kbps (Eng)
скриншот   скриншот   скриншот   скриншот   скриншот  

Общее
Уникальный идентификатор : 253740958327949184549926159398996358603 (0xBEE4BB214071467F9BE23F94A80535CB)
Полное имя : Призраки (Wind Chill) 2007 BDRip 1080p.mkv
Формат : Matroska
Версия формата : Version 2
Размер файла : 6,80 Гбайт
Продолжительность : 1 ч. 30 м.
Общий поток : 10,7 Мбит/сек
Дата кодирования : UTC 2017-08-24 11:28:41
Программа кодирования : mkvmerge v4.0.0 ('The Stars were mine') сборка от Jun 6 2010 16:18:42
Библиотека кодирования : libebml v1.0.0 + libmatroska v1.0.0

Видео
Идентификатор : 1
Формат : AVC
Формат/Информация : Advanced Video Codec
Профиль формата : High@L4.1
Параметр CABAC формата : Да
Параметр ReFrames формата : 5 кадров
Идентификатор кодека : V_MPEG4/ISO/AVC
Продолжительность : 1 ч. 30 м.
Битрейт : 9960 Кбит/сек
Ширина : 1920 пикселей
Высота : 800 пикселей
Соотношение сторон : 2,40:1
Режим частоты кадров : Постоянный
Частота кадров : 23,976 (24000/1001) кадра/сек
Цветовое пространство : YUV
Субдискретизация насыщенности : 4:2:0
Битовая глубина : 8 бит
Тип развёртки : Прогрессивная
Бит/(Пиксели*Кадры) : 0.270
Размер потока : 6,18 Гбайт (91%)
Библиотека кодирования : x264 core 152 r2851 ba24899
Настройки программы : cabac=1 / ref=5 / deblock=1:-3:-3 / analyse=0x3:0x113 / me=umh / subme=8 / psy=1 / psy_rd=1.00:0.00 / mixed_ref=1 / me_range=32 / chroma_me=1 / trellis=2 / 8x8dct=1 / cqm=0 / deadzone=21,11 / fast_pskip=1 / chroma_qp_offset=-2 / threads=24 / lookahead_threads=4 / sliced_threads=0 / nr=0 / decimate=1 / interlaced=0 / bluray_compat=0 / constrained_intra=0 / bframes=3 / b_pyramid=2 / b_adapt=2 / b_bias=0 / direct=3 / weightb=1 / open_gop=0 / weightp=2 / keyint=240 / keyint_min=24 / scenecut=40 / intra_refresh=0 / rc_lookahead=50 / rc=2pass / mbtree=1 / bitrate=9960 / ratetol=1.0 / qcomp=0.60 / qpmin=0 / qpmax=69 / qpstep=4 / cplxblur=20.0 / qblur=0.5 / ip_ratio=1.40 / aq=3:0.75
Язык : English
Default : Нет
Forced : Нет

Аудио #1
Идентификатор : 2
Формат : AC-3
Формат/Информация : Audio Coding 3
Расширение режима : CM (complete main)
Параметр Endianness формата : Big
Идентификатор кодека : A_AC3
Продолжительность : 1 ч. 30 м.
Вид битрейта : Постоянный
Битрейт : 384 Кбит/сек
Каналы : 6 каналов
Расположение каналов : Front: L C R, Side: L R, LFE
Частота : 48,0 КГц
Частота кадров : 31,250 кадров/сек (1536 spf)
Метод сжатия : С потерями
Размер потока : 249 Мбайт (4%)
Заголовок : MVO
Язык : Russian
Default : Нет
Forced : Нет

Аудио #2
Идентификатор : 3
Формат : AC-3
Формат/Информация : Audio Coding 3
Расширение режима : CM (complete main)
Параметр Endianness формата : Big
Идентификатор кодека : A_AC3
Продолжительность : 1 ч. 30 м.
Вид битрейта : Постоянный
Битрейт : 384 Кбит/сек
Каналы : 6 каналов
Расположение каналов : Front: L C R, Side: L R, LFE
Частота : 48,0 КГц
Частота кадров : 31,250 кадров/сек (1536 spf)
Метод сжатия : С потерями
Размер потока : 249 Мбайт (4%)
Язык : English
Default : Нет
Forced : Нет

Текст #1
Идентификатор : 4
Формат : UTF-8
Идентификатор кодека : S_TEXT/UTF8
Идентификатор кодека/Информация : UTF-8 Plain Text
Язык : English
Default : Нет
Forced : Нет

Текст #2
Идентификатор : 5
Формат : UTF-8
Идентификатор кодека : S_TEXT/UTF8
Идентификатор кодека/Информация : UTF-8 Plain Text
Заголовок : SDH
Язык : English
Default : Нет
Forced : Нет

Меню
00:00:00.000 : en:00:00:00.000
00:03:28.208 : en:00:03:28.208
00:10:15.115 : en:00:10:15.115
00:20:42.742 : en:00:20:42.742
00:31:40.399 : en:00:31:40.399
00:48:45.423 : en:00:48:45.423
00:57:00.918 : en:00:57:00.918
01:01:49.706 : en:01:01:49.706
01:13:38.414 : en:01:13:38.414
01:22:09.925 : en:01:22:09.925
01:26:43.699 : en:01:26:43.699

pb.wtf



Скачать Призраки через торрент http://i056.radikal.ru/1612/5f/8fb8939c930a.jpg Скачать фильм Призраки через торрент бесплантно в хорошем качестве Описание: Пара студентов, поехав домой на каникулы, решает воспользоваться дорогой, явно не пользующейся большой популярностью. Увы, ... 9.4 10 12
Торрент: Зарегистрирован [2017-08-24 16:14] · скачан: 278 раз
Статус: T временная
Размер: 6.8 GB
Как cкачать? Как скачать Призраки через торрент | qTorrent

% Раздел Тема Автор DL S | L
Фильмы 2006-2008 [ 1.37 GB ] Призраки / Wind Chill [2007 HDTVRip MVO] maygli Скачать
1 | 0

28-11-2019 20:33  

Отключить всю рекламу на сайте

    Дорогой пользователь! Огромная просьба, поблагодарите релизера, оцените раздачу и оставьте свои комментарий, если Вы скачали Призраки через торрент бесплатно! Внесите свою лепту в развитие PiratBit!
    Комментировать посты могут только пользователи прошедшие не сложную регистрацию
    Показать сообщения:    

    Призраки через торрент
    Скачать бесплатно Призраки
    Призраки скачать торрент
    Призраки смотреть онлайн
    Cкачать фильм Призраки бесплатно
    Призраки скачать торрент в хорошем качестве
    Призраки смотреть онлайн бесплатно в хорошем качестве


    Вы не можете начинать темы
    Вы не можете отвечать на сообщения
    Вы не можете редактировать свои сообщения
    Вы не можете удалять свои сообщения
    Вы не можете голосовать в опросах
    Вы не можете прикреплять файлы к сообщениям
    Вы можете скачивать файлы