Ссылка на приватное зеркало всего за 1$. Внимание количество ограничено!!!

iTunes

iTunes

iTunes

1

iTunes

iTunes

iTunes

WEBRip

iTunes

30
pack

$ от Little Big

ВАЖНО

!!Акция!!

Alien_RageХит недели

RePack

Resident Evil 21

ИГРА 18+

pack

RePack

jed

!!Акция!!

Alien_Rage

RePack

fifa19

RePack

Assassins Creed: Odyssey

RePack

NEED FOR SPEED™ PAYBACK

4 сезон

9 сезон

Бесстыжие 9 сезон

Все сериалы

все сериалы на PB.wtf

RePack

FAR CRY 5
  

Продается дача (Владимир Потапов) [2005 г., Комедия, мелодрама, Не требуется Русский] от ExKinoRay pb.wtf

Продается дача через торрент pb.wtf

Размер: 2.34 GB | Добавлен: 2 года 11 мес. назад | Торрент скачан:40 раз
Скачать  

24-08-2017 22:26 Продается дача Скачать торрент  

Продается дача
Год выпуска: 2005
Страна: Россия
Жанр: Комедия, мелодрама
Продолжительность: 01:35:58
Перевод: Не требуется Русский

Режиссер: Владимир Потапов

Премьера в мире: 20 октября 2005

rating

В ролях: Александр Панкратов-Чёрный, Татьяна Яковенко, Сергей Погосян, Софико Чиаурели, Левон Оганезов, Инга Оболдина, Фёдор Бондарчук, Роман Мадянов, Татьяна Кравченко, Валерий Гаркалин, Сергей Рубеко, Наталья Позднякова, Олеся Невмержицкая, Анатолий Калмыков, Наталья Унгард, Александр Числов, Анна Цуканова-Котт, Нина Муштакова, Юрий Бердников, Владимир Потапов, Ольга Потапова, Ярослав Потапов, Александр Абадаев, Виталий Бабенко, Ирина Лазарева, Вера Ермилова, Мария-Элина Ермилова, Татьяна Алгебраистова, Екатерина Нарывашева, Каролина Кабакуала, Денис Маурэ, Елена Бушуева, Децл

Описание: Сурен живет в Москве давно, с самого рождения. И его родители жили в Москве. И родители родителей тоже жили в Москве. Бесконечные родственники, «рядами и колоннами» приезжая в столицу и оккупируя доставшуюся от родителей «сталинскую» квартиру, вынуждают его уединиться у себя на даче. Тем временем мошенникам удается выгодно продать загородное убежище героя. Причем продать не один раз. Появившись у себя на даче в последние дни декабря и предвкушая встречу Нового года в полном умиротворении и покое, Сурен обнаруживает новых хозяев…

Видео: MPEG-4 AVC, 2600 Кбит/с, 718x412@765x412, 25 кадров/сек
Аудио#1: AC3, 2 ch, 448 Кбит/с, 48 КГц
Аудио#2: AC3, 6 ch, 448 Кбит/с, 48 КГц
Релиз от:




raw [info]: 718x412p 16:15 @ 25/1 fps (cfr)
x264 [info]: using SAR=16/15
x264 [info]: using cpu capabilities: MMX2 SSE2Fast LZCNT
x264 [info]: profile High, level 4.1
x264 [info]: frame I:1170 Avg QP:16.72 size: 59222
x264 [info]: frame P:31853 Avg QP:19.08 size: 25856
x264 [info]: frame B:110936 Avg QP:20.88 size: 8819
x264 [info]: consecutive B-frames: 2.3% 3.6% 12.1% 12.9% 8.2% 56.9% 1.8% 0.5% 0.7% 0.1% 0.1% 0.8% 0.0% 0.0% 0.0% 0.0% 0.0%
----
Общее
Уникальный идентификатор : 182243388842741511367463335800257888923 (0x891ACCCB16A688608B07EE0608D3C29B)
Полное имя : D:\Relizes\Prodaetsa.Da4a.2005.DVDRip-AVC.ExKinoRay.mkv
Формат : Matroska
Версия формата : Version 2
Размер файла : 2,34 Гбайт
Продолжительность : 1 ч. 35 м.
Общий поток : 3497 Кбит/сек
Дата кодирования : UTC 2017-08-24 17:57:14
Программа кодирования : mkvmerge v7.8.0 ('River Man') 32bit built on Apr 3 2015 12:11:22
Библиотека кодирования : libebml v1.3.1 + libmatroska v1.4.2

Видео
Идентификатор : 1
Формат : AVC
Формат/Информация : Advanced Video Codec
Профиль формата : High@L4.1
Параметр CABAC формата : Да
Параметр ReFrames формата : 14 кадров
Идентификатор кодека : V_MPEG4/ISO/AVC
Продолжительность : 1 ч. 35 м.
Битрейт : 2600 Кбит/сек
Ширина : 718 пикселей
Высота : 412 пикселей
Соотношение сторон : 1,85:1
Соотношение сторон в оригинале : 1,85:1
Режим частоты кадров : Постоянный
Частота кадров : 25,000 кадров/сек
Цветовое пространство : YUV
Субдискретизация насыщенности : 4:2:0
Битовая глубина : 8 бит
Тип развёртки : Прогрессивная
Бит/(Пиксели*Кадры) : 0.352
Размер потока : 1,70 Гбайт (72%)
Библиотека кодирования : x264 core 148 r2638 7599210
Настройки программы : cabac=1 / ref=14 / deblock=1:-2:-2 / analyse=0x3:0x133 / me=umh / subme=10 / psy=1 / psy_rd=1.05:0.15 / mixed_ref=1 / me_range=32 / chroma_me=1 / trellis=2 / 8x8dct=1 / cqm=0 / deadzone=21,11 / fast_pskip=0 / chroma_qp_offset=-3 / threads=4 / lookahead_threads=1 / sliced_threads=0 / nr=0 / decimate=0 / interlaced=0 / bluray_compat=0 / constrained_intra=0 / bframes=16 / b_pyramid=2 / b_adapt=2 / b_bias=0 / direct=3 / weightb=1 / open_gop=0 / weightp=2 / keyint=250 / keyint_min=25 / scenecut=40 / intra_refresh=0 / rc=2pass / mbtree=0 / bitrate=2600 / ratetol=1.0 / qcomp=0.60 / qpmin=0 / qpmax=69 / qpstep=4 / cplxblur=20.0 / qblur=0.5 / ip_ratio=1.40 / pb_ratio=1.30 / aq=1:1.00
Язык : English
Default : Да
Forced : Нет
Цветовой диапазон : Limited
Основные цвета : BT.601 NTSC
Характеристики трансфера : BT.601
Коэффициенты матрицы : BT.601

Аудио #1
Идентификатор : 2
Формат : AC-3
Формат/Информация : Audio Coding 3
Расширение режима : CM (complete main)
Параметр Endianness формата : Big
Идентификатор кодека : A_AC3
Продолжительность : 1 ч. 35 м.
Вид битрейта : Постоянный
Битрейт : 448 Кбит/сек
Каналы : 2 канала
Расположение каналов : Front: L R
Частота : 48,0 КГц
Частота кадров : 31,250 кадров/сек (1536 spf)
Метод сжатия : С потерями
Размер потока : 308 Мбайт (13%)
Default : Да
Forced : Нет

Аудио #2
Идентификатор : 3
Формат : AC-3
Формат/Информация : Audio Coding 3
Расширение режима : CM (complete main)
Параметр Endianness формата : Big
Идентификатор кодека : A_AC3
Продолжительность : 1 ч. 35 м.
Вид битрейта : Постоянный
Битрейт : 448 Кбит/сек
Каналы : 6 каналов
Расположение каналов : Front: L C R, Side: L R, LFE
Частота : 48,0 КГц
Частота кадров : 31,250 кадров/сек (1536 spf)
Метод сжатия : С потерями
Задержка видео : 3 с. 320 мс.
Размер потока : 308 Мбайт (13%)
Default : Нет
Forced : Нет

pb.wtf



Скачать Продается дача через торрент http://s011.radikal.ru/i316/1708/e5/ae1c5a15fc4a.jpg Скачать фильм Продается дача через торрент бесплантно в хорошем качестве Описание: Сурен живет в Москве давно, с самого рождения. И его родители жили в Москве. И родители родителей тоже жили в Москве. Бесконечные ... 10 10 1
Info! Золотая раздача, скачанное не засчитывается.
Торрент: Зарегистрирован [2017-08-24 22:26] · скачан: 40 раз
Статус: √ проверено
Размер: 2.34 GB
Как cкачать? Как скачать Продается дача через торрент | qTorrent

28-11-2019 20:33  

Отключить всю рекламу на сайте

25-08-2017 02:43 Продается дача Скачать торрент  

Топик был перенесен из форума Оформление раздач (Кино, Видео и ТВ) в форум Наши фильмы, до 2010


Enigma2010pb.wtf



    Дорогой пользователь! Огромная просьба, поблагодарите релизера, оцените раздачу и оставьте свои комментарий, если Вы скачали Продается дача через торрент бесплатно! Внесите свою лепту в развитие PiratBit!
    Комментировать посты могут только пользователи прошедшие не сложную регистрацию
    Показать сообщения:    

    Продается дача через торрент
    Скачать бесплатно Продается дача
    Продается дача скачать торрент
    Продается дача смотреть онлайн
    Cкачать фильм Продается дача бесплатно
    Продается дача скачать торрент в хорошем качестве
    Продается дача смотреть онлайн бесплатно в хорошем качестве


    Вы не можете начинать темы
    Вы не можете отвечать на сообщения
    Вы не можете редактировать свои сообщения
    Вы не можете удалять свои сообщения
    Вы не можете голосовать в опросах
    Вы не можете прикреплять файлы к сообщениям
    Вы можете скачивать файлы